查看: 23|回复: 0

[纪录片] 艾洛:拉普兰的奥德赛 A.Reindeers.Journey.2018.DUBBED.1080p.WEB-DL.DD5.1.H264-FGT 2.90GB

[复制链接]

 成长值: 3210

级别:资源管理组

注册时间
2017-10-20
最后登录
2019-11-20
听众
1
收听
0
主题
87270
蓝光币
63236 枚
贡献
11629 点
发表于 2019-11-8 23:20:55 | 显示全部楼层 |阅读模式
艾洛:拉普兰的奥德赛 A.Reindeers.Journey.2018.DUBBED.1080p.WEB-DL.DD5.1.H264-FGT 2.90GB-1.png

译  名 艾洛:拉普兰的奥德赛 / Ailo - pienen poron suuri seikkailu
片  名 Ailo: Une odyssée en Laponie
年  代 2018
产  地 法国 / 芬兰
类  别 记载片
语  言 法语
上映日期 2018-12-21(芬兰)
IMDb评分  7.1/10 from 138 users
IMDb链接  http://www.imdb.com/title/tt8242340
豆瓣评分 0/10 from 0 users
豆瓣链接 https://movie.douban.com/subject/30426840/
片  长 86分钟
导  演 Guillaume Maidatchevsky
主  演 Aldebert
       安克·恩戈尔克 Anke Engelke


标  签 记载片 | 自然 | 温情 | 长大

简  介  

  A?lo: an odyssey in Lapland tells the fight for the survival of a small wild reindeer, frail and vulnerable to the challenges that punctuate his first year. qiwan.cc Its awakening to the wild world is a real tale in the heart of the grandiose landscapes of Lapland.
  1. Video
  2. ID                                       : 1
  3. Format                                   : AVC
  4. Format/Info                              : Advanced Video Codec
  5. Format profile                           : High@L4
  6. Format settings                          : CABAC / 5 Ref Frames
  7. Format settings, CABAC                   : Yes
  8. Format settings, Reference frames        : 5 frames
  9. Codec ID                                 : V_MPEG4/ISO/AVC
  10. Duration                                 : 1 h 26 min
  11. Bit rate                                 : 4 416 kb/s
  12. Width                                    : 1 908 pixels
  13. Height                                   : 792 pixels
  14. Display aspect ratio                     : 2.40:1
  15. Frame rate mode                          : Constant
  16. Frame rate                               : 23.976 (24000/1001) FPS
  17. Color space                              : YUV
  18. Chroma subsampling                       : 4:2:0
  19. Bit depth                                : 8 bits
  20. Scan type                                : Progressive
  21. Bits/(Pixel*Frame)                       : 0.122
  22. Stream size                              : 2.66 GiB (92%)
  23. Title                                    : A.Reindeers.Journey.2018.DUBBED.1080p.WEB-DL.DD5.1.H264-FGT
  24. Language                                 : English
  25. Default                                  : Yes
  26. Forced                                   : No
  27. Color range                              : Limited
  28. Color primaries                          : BT.709
  29. Transfer characteristics                 : BT.709
  30. Matrix coefficients                      : BT.709

  31. Audio
  32. ID                                       : 2
  33. Format                                   : AC-3
  34. Format/Info                              : Audio Coding 3
  35. Commercial name                          : Dolby Digital
  36. Codec ID                                 : A_AC3
  37. Duration                                 : 1 h 26 min
  38. Bit rate mode                            : Constant
  39. Bit rate                                 : 384 kb/s
  40. Channel(s)                               : 6 channels
  41. Channel layout                           : L R C LFE Ls Rs
  42. Sampling rate                            : 48.0 kHz
  43. Frame rate                               : 31.250 FPS (1536 SPF)
  44. Bit depth                                : 16 bits
  45. Compression mode                         : Lossy
  46. Stream size                              : 237 MiB (8%)
  47. Title                                    : A.Reindeers.Journey.2018.DUBBED.1080p.WEB-DL.DD5.1.H264-FGT
  48. Language                                 : English
  49. Service kind                             : Complete Main
  50. Default                                  : Yes
  51. Forced                                   : No

  52. Text
  53. ID                                       : 3
  54. Format                                   : UTF-8
  55. Codec ID                                 : S_TEXT/UTF8
  56. Codec ID/Info                            : UTF-8 Plain Text
  57. Duration                                 : 1 h 19 min
  58. Bit rate                                 : 41 b/s
  59. Count of elements                        : 606
  60. Stream size                              : 24.0 KiB (0%)
  61. Language                                 : English
  62. Default                                  : Yes
  63. Forced                                   : No

  64. Menu
  65. 00:00:00.000                             : en:1
  66. 00:01:40.000                             : en:2
  67. 00:11:47.000                             : en:3
  68. 00:21:22.000                             : en:4
  69. 00:29:29.000                             : en:5
  70. 00:41:03.000                             : en:6
  71. 00:51:58.000                             : en:7
  72. 01:00:31.000                             : en:8
  73. 01:10:01.000                             : en:9
  74. 01:22:01.000                             : en:10
复制代码

艾洛:拉普兰的奥德赛 A.Reindeers.Journey.2018.DUBBED.1080p.WEB-DL.DD5.1.H264-FGT 2.90GB-2.png 艾洛:拉普兰的奥德赛 A.Reindeers.Journey.2018.DUBBED.1080p.WEB-DL.DD5.1.H264-FGT 2.90GB-3.png 艾洛:拉普兰的奥德赛 A.Reindeers.Journey.2018.DUBBED.1080p.WEB-DL.DD5.1.H264-FGT 2.90GB-4.png







VIP会员免费任意下载本站所有资源!---点击开通
回复

使用道具 举报

懒得打字嘛,点击右侧快捷回复 【右侧内容,后台自定义】
您需要登录后才可以回帖 登录 | 立即注册

本版积分规则

QQ|Archiver|手机版|小黑屋| 中国高清网 |网站地图

GMT+8, 2019-11-20 22:35 , Processed in 0.240773 second(s), 37 queries .

Powered by HDchina X3.4

Copyright 2017-2019©HDchina.All right reserved

返回顶部 联系我们