查看: 18|回复: 0

[剧情片] 寒冷溪流/怪人布鲁克 Cold.Brook.2018.1080p.WEB-DL.DD5.1.H264-FGT 3.95GB

[复制链接]

 成长值: 3210

级别:资源管理组

注册时间
2017-10-20
最后登录
2019-11-20
听众
1
收听
0
主题
87250
蓝光币
63202 枚
贡献
11609 点
发表于 2019-11-8 23:17:45 | 显示全部楼层 |阅读模式
严寒溪流/怪人布鲁克 Cold.Brook.2018.1080p.WEB-DL.DD5.1.H264-FGT 3.95GB-1.png

译  名 严寒溪流 / 怪人布鲁克
片  名 Cold Brook
年  代 2018
产  地 美国
类  别 剧情
语  言 英语
上映日期 2018-10-15(美国)
IMDb评分  7.5/10 from 35 users
IMDb链接  https://www.imdb.com/title/tt6992230
豆瓣评分 0/10 from 0 users
豆瓣链接 https://movie.douban.com/subject/34866082/
片  长 100分钟
导  演 威廉·菲克纳 William Fichtner
编  剧 Cain Devore / 威廉·菲克纳 William Fichtner
主  演 哈罗德·佩里诺 Harold Perrineau
       威廉·菲克纳 William Fichtner
       罗宾·薇格特 Robin Weigert
       金·寇兹 Kim Coates
       玛丽·莱恩·莱杰斯库 Mary Lynn Rajskub
       布拉德·威廉姆·亨克 Brad William Henke
       夏洛林·阿莫亚 Charlene Amoia
       强尼·斯特朗 Johnny Strong
       埃里希·安德森 Erich Anderson
       路易斯·穆斯蒂略 Louis Mustillo
       阿兰·皮特鲁塞泽维斯基 Alan Pietruszewski
       Joe Fishel
       Steve Abbott
       帕特·阿桑蒂 Pat Asanti
       Jenna Clause


简  介  

  Cold Brook is the story of two ordinary guys in a small town who embark on an extraordinary adventure. It's a story about coming home; something everyone, everywhere has an innate desire to do.
  1. Video
  2. ID                                       : 1
  3. Format                                   : AVC
  4. Format/Info                              : Advanced Video Codec
  5. Format profile                           : High@L4
  6. Format settings                          : CABAC / 4 Ref Frames
  7. Format settings, CABAC                   : Yes
  8. Format settings, Reference frames        : 4 frames
  9. Codec ID                                 : V_MPEG4/ISO/AVC
  10. Duration                                 : 1 h 42 min
  11. Bit rate                                 : 5 146 kb/s
  12. Width                                    : 1 908 pixels
  13. Height                                   : 1 024 pixels
  14. Display aspect ratio                     : 1.85:1
  15. Frame rate mode                          : Constant
  16. Frame rate                               : 23.976 FPS
  17. Color space                              : YUV
  18. Chroma subsampling                       : 4:2:0
  19. Bit depth                                : 8 bits
  20. Scan type                                : Progressive
  21. Bits/(Pixel*Frame)                       : 0.110
  22. Stream size                              : 3.67 GiB (93%)
  23. Title                                    : Cold.Brook.2018.1080p.WEB-DL.DD5.1.H264-FGT
  24. Language                                 : English
  25. Default                                  : Yes
  26. Forced                                   : No
  27. Color range                              : Limited
  28. Color primaries                          : BT.709
  29. Transfer characteristics                 : BT.709
  30. Matrix coefficients                      : BT.709

  31. Audio
  32. ID                                       : 2
  33. Format                                   : AC-3
  34. Format/Info                              : Audio Coding 3
  35. Commercial name                          : Dolby Digital
  36. Codec ID                                 : A_AC3
  37. Duration                                 : 1 h 42 min
  38. Bit rate mode                            : Constant
  39. Bit rate                                 : 384 kb/s
  40. Channel(s)                               : 6 channels
  41. Channel layout                           : L R C LFE Ls Rs
  42. Sampling rate                            : 48.0 kHz
  43. Frame rate                               : 31.250 FPS (1536 SPF)
  44. Bit depth                                : 16 bits
  45. Compression mode                         : Lossy
  46. Stream size                              : 281 MiB (7%)
  47. Title                                    : Cold.Brook.2018.1080p.WEB-DL.DD5.1.H264-FGT
  48. Language                                 : English
  49. Service kind                             : Complete Main
  50. Default                                  : Yes
  51. Forced                                   : No

  52. Text
  53. ID                                       : 3
  54. Format                                   : UTF-8
  55. Codec ID                                 : S_TEXT/UTF8
  56. Codec ID/Info                            : UTF-8 Plain Text
  57. Duration                                 : 1 h 41 min
  58. Bit rate                                 : 74 b/s
  59. Count of elements                        : 1636
  60. Stream size                              : 55.5 KiB (0%)
  61. Language                                 : English
  62. Default                                  : Yes
  63. Forced                                   : No

  64. Menu
  65. 00:00:00.000                             : en:1
  66. 00:04:39.000                             : en:2
  67. 00:13:43.000                             : en:3
  68. 00:22:51.000                             : en:4
  69. 00:33:20.000                             : en:5
  70. 00:44:10.000                             : en:6
  71. 00:53:07.000                             : en:7
  72. 01:03:19.000                             : en:8
  73. 01:14:00.000                             : en:9
  74. 01:24:32.000                             : en:10
  75. 01:37:18.000                             : en:11
复制代码

严寒溪流/怪人布鲁克 Cold.Brook.2018.1080p.WEB-DL.DD5.1.H264-FGT 3.95GB-2.png 84641820267198640827_medium.png 严寒溪流/怪人布鲁克 Cold.Brook.2018.1080p.WEB-DL.DD5.1.H264-FGT 3.95GB-4.png







VIP会员免费任意下载本站所有资源!---点击开通
回复

使用道具 举报

懒得打字嘛,点击右侧快捷回复 【右侧内容,后台自定义】
您需要登录后才可以回帖 登录 | 立即注册

本版积分规则

QQ|Archiver|手机版|小黑屋| 中国高清网 |网站地图

GMT+8, 2019-11-20 21:48 , Processed in 0.221232 second(s), 37 queries .

Powered by HDchina X3.4

Copyright 2017-2019©HDchina.All right reserved

返回顶部 联系我们