查看: 13|回复: 0

[喜剧片] 傲慢与偏见与槲寄生/缘来在圣诞 Pride.Prejudice.And.Mistletoe.2018.1080p.AMZN.WEBRip.DDP5.1.x264-ABM 6.10GB

[复制链接]

 成长值: 3140

级别:资源管理组

注册时间
2017-10-20
最后登录
2019-11-11
听众
1
收听
0
主题
86761
蓝光币
61613 枚
贡献
11119 点
发表于 5 天前 | 显示全部楼层 |阅读模式
狂妄与偏见与槲寄生/缘来在圣诞 Pride.Prejudice.And.Mistletoe.2018.1080p.AMZN.WEBRip.DDP5.1.x264-ABM 6.10GB-1.png

译  名 狂妄与偏见与槲寄生 / 缘来在圣诞
片  名 Pride, Prejudice and Mistletoe
年  代 2018
产  地 美国
类  别 笑剧 / 恋爱
语  言 英语
上映日期 2013-11-23(美国)
IMDb评分  6.5/10 from 964 users
IMDb链接  https://www.imdb.com/title/tt8634192
豆瓣评分 0/10 from 0 users
豆瓣链接 https://movie.douban.com/subject/30485170/
片  长 82分钟
导  演 Don McBrearty
编  剧 Melissa de la Cruz / Nina Weinman
主  演 莱西·沙伯特 Lacey Chabert
       布兰登·佩尼 Brendan Penny


标  签 美国电影 | 美国 | 电影 | 恋爱 | 笑剧 | 剧情

简  介  

  Darcy (Chabert) started her own company, rather than work with her father. Returning to her hometown for Christmas, Darcy reconnects with an old rival from high school, tavern owner Luke (Penny).Darcy's mother has them plan a charity event together. As Darcy and Luke plan the event, she is trying to find what age wants in life. Based on the book of the same title by Melissa de la Cruz.
  1. Video
  2. ID                                       : 1
  3. Format                                   : AVC
  4. Format/Info                              : Advanced Video Codec
  5. Format profile                           : High@L4
  6. Format settings                          : CABAC / 4 Ref Frames
  7. Format settings, CABAC                   : Yes
  8. Format settings, Reference frames        : 4 frames
  9. Codec ID                                 : V_MPEG4/ISO/AVC
  10. Duration                                 : 1 h 26 min
  11. Bit rate mode                            : Constant
  12. Bit rate                                 : 9 483 kb/s
  13. Nominal bit rate                         : 10 000 kb/s
  14. Width                                    : 1 920 pixels
  15. Height                                   : 1 080 pixels
  16. Display aspect ratio                     : 16:9
  17. Frame rate mode                          : Constant
  18. Frame rate                               : 23.976 (24000/1001) FPS
  19. Color space                              : YUV
  20. Chroma subsampling                       : 4:2:0
  21. Bit depth                                : 8 bits
  22. Scan type                                : Progressive
  23. Bits/(Pixel*Frame)                       : 0.191
  24. Stream size                              : 5.72 GiB (94%)
  25. Language                                 : English
  26. Default                                  : Yes
  27. Forced                                   : No
  28. Color range                              : Limited
  29. Color primaries                          : BT.709
  30. Transfer characteristics                 : BT.709
  31. Matrix coefficients                      : BT.709

  32. Audio
  33. ID                                       : 2
  34. Format                                   : E-AC-3
  35. Format/Info                              : Enhanced AC-3
  36. Commercial name                          : Dolby Digital Plus
  37. Codec ID                                 : A_EAC3
  38. Duration                                 : 1 h 26 min
  39. Bit rate mode                            : Constant
  40. Bit rate                                 : 640 kb/s
  41. Channel(s)                               : 6 channels
  42. Channel layout                           : L R C LFE Ls Rs
  43. Sampling rate                            : 48.0 kHz
  44. Frame rate                               : 31.250 FPS (1536 SPF)
  45. Compression mode                         : Lossy
  46. Stream size                              : 395 MiB (6%)
  47. Language                                 : English
  48. Service kind                             : Complete Main
  49. Default                                  : Yes
  50. Forced                                   : No

  51. Text
  52. ID                                       : 3
  53. Format                                   : UTF-8
  54. Codec ID                                 : S_TEXT/UTF8
  55. Codec ID/Info                            : UTF-8 Plain Text
  56. Duration                                 : 1 h 21 min
  57. Bit rate                                 : 109 b/s
  58. Count of elements                        : 1561
  59. Stream size                              : 65.7 KiB (0%)
  60. Language                                 : English
  61. Default                                  : No
  62. Forced                                   : No
复制代码

231222pmb3b3mmbo0ziqmm.png 狂妄与偏见与槲寄生/缘来在圣诞 Pride.Prejudice.And.Mistletoe.2018.1080p.AMZN.WEBRip.DDP5.1.x264-ABM 6.10GB-3.png 狂妄与偏见与槲寄生/缘来在圣诞 Pride.Prejudice.And.Mistletoe.2018.1080p.AMZN.WEBRip.DDP5.1.x264-ABM 6.10GB-4.png







VIP会员免费任意下载本站所有资源!---点击开通
回复

使用道具 举报

懒得打字嘛,点击右侧快捷回复 【右侧内容,后台自定义】
您需要登录后才可以回帖 登录 | 立即注册

本版积分规则

QQ|Archiver|手机版|小黑屋| 中国高清网 |网站地图 

GMT+8, 2019-11-13 17:08 , Processed in 0.228066 second(s), 37 queries .

Powered by HDchina X3.4

Copyright 2017-2019©HDchina.All right reserved

返回顶部 联系我们