查看: 16|回复: 0

[动作片] 原始恐惧 Primal.2019.1080p.WEB-DL.DD5.1.H264-FGT 3.35GB

[复制链接]

 成长值: 3160

级别:资源管理组

注册时间
2017-10-20
最后登录
2019-11-11
听众
1
收听
0
主题
86761
蓝光币
61863 枚
贡献
11119 点
发表于 7 天前 | 显示全部楼层 |阅读模式
原始恐惧 Primal.2019.1080p.WEB-DL.DD5.1.H264-FGT 3.35GB-1.png

译  名 原始恐惧
片  名 Primal
年  代 2019
产  地 美国
类  别 行动
语  言 英语
上映日期 2019-11-08(美国)
IMDb评分  6.1/10 from 27 users
IMDb链接  https://www.imdb.com/title/tt7394816
豆瓣评分 0/10 from 0 users
豆瓣链接 https://movie.douban.com/subject/27139736/
导  演 尼克·鲍威尔 Nick Powell
编  剧 Richard Leder
主  演 尼古拉斯·凯奇 Nicolas Cage
       法米克·詹森 Famke Janssen
       凯文·杜兰 Kevin Durand
       迈克尔·因佩里奥利 Michael Imperioli
       拉莫尼卡·加瑞特 LaMonica Garrett
       雷·埃尔南德斯 Rey Hernandez
       汤姆·沃克 Tom Walker
       布赖恩·泰斯特 Brian Tester
       John Lewis
       Sewell Whitney
       Braulio Castillo hijo
       Joseph Oliveira
       Drake Shannon
       Sebastian Vázquez
       Jaime Irizarry


标  签 2019 | 行动 | 美国电影 | 尼古拉斯·凯奇 | 美国 | 法米克·詹森 | 都雅

简  介  

  一位大型动物禁猎区的治理人Frank Walsh,他押运一艘载满了来自亚马逊、奇异又致命的大型动物的希腊运输船,其中包括一只极为罕有的红色美洲虎。不外致命的动物并不是船上最使人恐惧的生物,一支计划将一位政治暗杀杀手Richard Loffler偷渡去美国的小队也在船上。Loffler随后抛弃看管他的美国警官并放出了牢笼里的猛兽,使整艘船堕入极大的惊慌于紊乱当中。Frank必须找出既不危险动物也能保全船员平稳无恙的方式,同时还要提防疯狂的杀手。
  1. Video
  2. ID                                       : 1
  3. Format                                   : AVC
  4. Format/Info                              : Advanced Video Codec
  5. Format profile                           : High@L4
  6. Format settings                          : CABAC / 5 Ref Frames
  7. Format settings, CABAC                   : Yes
  8. Format settings, Reference frames        : 5 frames
  9. Codec ID                                 : V_MPEG4/ISO/AVC
  10. Duration                                 : 1 h 36 min
  11. Bit rate                                 : 4 564 kb/s
  12. Width                                    : 1 920 pixels
  13. Height                                   : 802 pixels
  14. Display aspect ratio                     : 2.40:1
  15. Frame rate mode                          : Constant
  16. Frame rate                               : 23.976 FPS
  17. Color space                              : YUV
  18. Chroma subsampling                       : 4:2:0
  19. Bit depth                                : 8 bits
  20. Scan type                                : Progressive
  21. Bits/(Pixel*Frame)                       : 0.124
  22. Stream size                              : 3.09 GiB (92%)
  23. Title                                    : Primal.2019.1080p.WEB-DL.DD5.1.H264-FGT
  24. Language                                 : English
  25. Default                                  : Yes
  26. Forced                                   : No
  27. Color range                              : Limited
  28. Color primaries                          : BT.709
  29. Transfer characteristics                 : BT.709
  30. Matrix coefficients                      : BT.709

  31. Audio
  32. ID                                       : 2
  33. Format                                   : AC-3
  34. Format/Info                              : Audio Coding 3
  35. Commercial name                          : Dolby Digital
  36. Codec ID                                 : A_AC3
  37. Duration                                 : 1 h 36 min
  38. Bit rate mode                            : Constant
  39. Bit rate                                 : 384 kb/s
  40. Channel(s)                               : 6 channels
  41. Channel layout                           : L R C LFE Ls Rs
  42. Sampling rate                            : 48.0 kHz
  43. Frame rate                               : 31.250 FPS (1536 SPF)
  44. Bit depth                                : 16 bits
  45. Compression mode                         : Lossy
  46. Stream size                              : 266 MiB (8%)
  47. Title                                    : Primal.2019.1080p.WEB-DL.DD5.1.H264-FGT
  48. Language                                 : English
  49. Service kind                             : Complete Main
  50. Default                                  : Yes
  51. Forced                                   : No

  52. Text
  53. ID                                       : 3
  54. Format                                   : UTF-8
  55. Codec ID                                 : S_TEXT/UTF8
  56. Codec ID/Info                            : UTF-8 Plain Text
  57. Duration                                 : 1 h 31 min
  58. Bit rate                                 : 77 b/s
  59. Count of elements                        : 1407
  60. Stream size                              : 52.2 KiB (0%)
  61. Language                                 : English
  62. Default                                  : Yes
  63. Forced                                   : No

  64. Menu
  65. 00:00:00.000                             : en:1
  66. 00:10:16.000                             : en:2
  67. 00:22:03.000                             : en:3
  68. 00:28:54.000                             : en:4
  69. 00:39:12.000                             : en:5
  70. 00:49:45.000                             : en:6
  71. 00:57:27.000                             : en:7
  72. 01:06:47.000                             : en:8
  73. 01:13:18.000                             : en:9
  74. 01:21:09.000                             : en:10
  75. 01:32:29.000                             : en:11
复制代码

原始恐惧 Primal.2019.1080p.WEB-DL.DD5.1.H264-FGT 3.35GB-2.png 230941quh6i5u5m5mu357i.png 原始恐惧 Primal.2019.1080p.WEB-DL.DD5.1.H264-FGT 3.35GB-4.png







VIP会员免费任意下载本站所有资源!---点击开通
回复

使用道具 举报

懒得打字嘛,点击右侧快捷回复 【右侧内容,后台自定义】
您需要登录后才可以回帖 登录 | 立即注册

本版积分规则

QQ|Archiver|手机版|小黑屋| 中国高清网 |网站地图 

GMT+8, 2019-11-15 11:15 , Processed in 0.206594 second(s), 37 queries .

Powered by HDchina X3.4

Copyright 2017-2019©HDchina.All right reserved

返回顶部 联系我们