查看: 22|回复: 0

[动作片] 疾速杀机 Acceleration.2019.1080p.WEBRip.DD5.1.x264-CM 3.20GB

[复制链接]

 成长值: 3210

级别:资源管理组

注册时间
2017-10-20
最后登录
2019-11-20
听众
1
收听
0
主题
87221
蓝光币
63012 枚
贡献
11580 点
发表于 2019-11-8 23:08:26 | 显示全部楼层 |阅读模式
快速杀机 Acceleration.2019.1080p.WEBRip.DD5.1.x264-CM 3.20GB-1.png

译  名 快速杀机 / The Driver
片  名 Acceleration
年  代 2019
产  地 美国
类  别 行动 / 犯罪
语  言 英语
上映日期 2019-11-08(美国)
IMDb链接  https://www.imdb.com/title/tt9534808
豆瓣评分 0/10 from 0 users
豆瓣链接 https://movie.douban.com/subject/33397774/
片  长 85分钟
导  演 Michael Merino / Daniel Zirilli
编  剧 Michael Merino / Daniel Zirilli / 娜塔莉·伯恩 Natalie Burn
主  演 肖恩·派特里克·弗兰纳里 Sean Patrick Flanery
       杜夫·龙格尔 Dolph Lundgren
       查克·林德尔 Chuck Liddell
       娜塔莉·伯恩 Natalie Burn
       奎顿·杰克逊 Quinton 'Rampage' Jackson
       丹尼·特雷霍 Danny Trejo


简  介  

  暂无相关剧情先容
  1. Video
  2. ID                                       : 1
  3. Format                                   : AVC
  4. Format/Info                              : Advanced Video Codec
  5. Format profile                           : High@L4
  6. Format settings                          : CABAC / 2 Ref Frames
  7. Format settings, CABAC                   : Yes
  8. Format settings, Reference frames        : 2 frames
  9. Codec ID                                 : V_MPEG4/ISO/AVC
  10. Duration                                 : 1 h 25 min
  11. Bit rate                                 : 4 984 kb/s
  12. Width                                    : 1 920 pixels
  13. Height                                   : 1 080 pixels
  14. Display aspect ratio                     : 16:9
  15. Frame rate mode                          : Constant
  16. Frame rate                               : 23.976 (24000/1001) FPS
  17. Color space                              : YUV
  18. Chroma subsampling                       : 4:2:0
  19. Bit depth                                : 8 bits
  20. Scan type                                : Progressive
  21. Bits/(Pixel*Frame)                       : 0.100
  22. Stream size                              : 2.97 GiB (93%)
  23. Writing library                          : x264 core 155 r2901 7d0ff22
  24. Default                                  : Yes
  25. Forced                                   : No
  26. Color range                              : Limited
  27. Color primaries                          : BT.709
  28. Transfer characteristics                 : BT.709
  29. Matrix coefficients                      : BT.709

  30. Audio
  31. ID                                       : 2
  32. Format                                   : AC-3
  33. Format/Info                              : Audio Coding 3
  34. Commercial name                          : Dolby Digital
  35. Codec ID                                 : A_AC3
  36. Duration                                 : 1 h 25 min
  37. Bit rate mode                            : Constant
  38. Bit rate                                 : 384 kb/s
  39. Channel(s)                               : 6 channels
  40. Channel layout                           : L R C LFE Ls Rs
  41. Sampling rate                            : 48.0 kHz
  42. Frame rate                               : 31.250 FPS (1536 SPF)
  43. Bit depth                                : 16 bits
  44. Compression mode                         : Lossy
  45. Stream size                              : 234 MiB (7%)
  46. Title                                    : English
  47. Language                                 : English
  48. Service kind                             : Complete Main
  49. Default                                  : Yes
  50. Forced                                   : No
复制代码

快速杀机 Acceleration.2019.1080p.WEBRip.DD5.1.x264-CM 3.20GB-2.png 快速杀机 Acceleration.2019.1080p.WEBRip.DD5.1.x264-CM 3.20GB-3.png 快速杀机 Acceleration.2019.1080p.WEBRip.DD5.1.x264-CM 3.20GB-4.png







VIP会员免费任意下载本站所有资源!---点击开通
回复

使用道具 举报

懒得打字嘛,点击右侧快捷回复 【右侧内容,后台自定义】
您需要登录后才可以回帖 登录 | 立即注册

本版积分规则

QQ|Archiver|手机版|小黑屋| 中国高清网 |网站地图

GMT+8, 2019-11-20 09:31 , Processed in 0.235869 second(s), 37 queries .

Powered by HDchina X3.4

Copyright 2017-2019©HDchina.All right reserved

返回顶部 联系我们