查看: 23|回复: 0

[剧情片] 闯入者 Breaker.2019.1080p.AMZN.WEBRip.DDP5.1.x264-IKA 4.95GB

[复制链接]

 成长值: 3160

级别:资源管理组

注册时间
2017-10-20
最后登录
2019-11-11
听众
1
收听
0
主题
86761
蓝光币
61867 枚
贡献
11119 点
发表于 7 天前 | 显示全部楼层 |阅读模式
141210vpdd02v6jvlk9vdm.png

译  名 闯入者
片  名 Breaker
年  代 2019
产  地 美国
语  言 英语
上映日期 2019-07-05(美国)
IMDb评分  6.2/10 from 93 users
IMDb链接  http://www.imdb.com/title/tt7428884
豆瓣评分 0/10 from 0 users
豆瓣链接 https://movie.douban.com/subject/34461860/
导  演 Wade F. Jackson
编  剧 Wade F. Jackson
主  演 Eddie Baacus
       爱丽丝·巴雷特 Alice Barrett
       威廉·布鲁姆菲尔德 William Bloomfield
       Richard Brevard
       Jonathan Gaietto
       Chantz Marcus
       皮特·奥布莱恩 Peter O'Brien


简  介  

  A troubled young veteran returns to his rural home and forms a friendship with a hermit rancher who offers sanctuary from his dysfunctional family.
  1. Video
  2. ID                                       : 1
  3. Format                                   : AVC
  4. Format/Info                              : Advanced Video Codec
  5. Format profile                           : High@L4
  6. Format settings                          : CABAC / 4 Ref Frames
  7. Format settings, CABAC                   : Yes
  8. Format settings, Reference frames        : 4 frames
  9. Codec ID                                 : V_MPEG4/ISO/AVC
  10. Duration                                 : 1 h 24 min
  11. Bit rate mode                            : Constant
  12. Bit rate                                 : 7 709 kb/s
  13. Nominal bit rate                         : 10 000 kb/s
  14. Width                                    : 1 920 pixels
  15. Height                                   : 800 pixels
  16. Display aspect ratio                     : 2.40:1
  17. Frame rate mode                          : Constant
  18. Frame rate                               : 23.976 (24000/1001) FPS
  19. Color space                              : YUV
  20. Chroma subsampling                       : 4:2:0
  21. Bit depth                                : 8 bits
  22. Scan type                                : Progressive
  23. Bits/(Pixel*Frame)                       : 0.209
  24. Stream size                              : 4.57 GiB (92%)
  25. Default                                  : Yes
  26. Forced                                   : No
  27. Color range                              : Limited
  28. Color primaries                          : BT.709
  29. Transfer characteristics                 : BT.709
  30. Matrix coefficients                      : BT.709

  31. Audio
  32. ID                                       : 2
  33. Format                                   : E-AC-3
  34. Format/Info                              : Enhanced AC-3
  35. Commercial name                          : Dolby Digital Plus
  36. Codec ID                                 : A_EAC3
  37. Duration                                 : 1 h 24 min
  38. Bit rate mode                            : Constant
  39. Bit rate                                 : 640 kb/s
  40. Channel(s)                               : 6 channels
  41. Channel layout                           : L R C LFE Ls Rs
  42. Sampling rate                            : 48.0 kHz
  43. Frame rate                               : 31.250 FPS (1536 SPF)
  44. Compression mode                         : Lossy
  45. Stream size                              : 389 MiB (8%)
  46. Language                                 : English
  47. Service kind                             : Complete Main
  48. Default                                  : Yes
  49. Forced                                   : No

  50. Text
  51. ID                                       : 3
  52. Format                                   : UTF-8
  53. Codec ID                                 : S_TEXT/UTF8
  54. Codec ID/Info                            : UTF-8 Plain Text
  55. Duration                                 : 1 h 24 min
  56. Bit rate                                 : 35 b/s
  57. Count of elements                        : 835
  58. Stream size                              : 22.1 KiB (0%)
  59. Language                                 : English
  60. Default                                  : No
  61. Forced                                   : No
复制代码

闯入者 Breaker.2019.1080p.AMZN.WEBRip.DDP5.1.x264-IKA 4.95GB-2.png 闯入者 Breaker.2019.1080p.AMZN.WEBRip.DDP5.1.x264-IKA 4.95GB-3.png 闯入者 Breaker.2019.1080p.AMZN.WEBRip.DDP5.1.x264-IKA 4.95GB-4.png






VIP会员免费任意下载本站所有资源!---点击开通
回复

使用道具 举报

懒得打字嘛,点击右侧快捷回复 【右侧内容,后台自定义】
您需要登录后才可以回帖 登录 | 立即注册

本版积分规则

QQ|Archiver|手机版|小黑屋| 中国高清网 |网站地图 

GMT+8, 2019-11-15 11:26 , Processed in 0.212167 second(s), 37 queries .

Powered by HDchina X3.4

Copyright 2017-2019©HDchina.All right reserved

返回顶部 联系我们