查看: 18|回复: 0

[纪录片] 瓶装生活/瓶中人生 Bottled.Life.Nestles.Business.with.Water.2012.1080p.AMZN.WEBRip.DDP2.0.x264-NTG 6.36GB

[复制链接]

 成长值: 3210

级别:资源管理组

注册时间
2017-10-20
最后登录
2019-11-20
听众
1
收听
0
主题
87221
蓝光币
63004 枚
贡献
11580 点
发表于 2019-11-8 14:09:56 | 显示全部楼层 |阅读模式
瓶装生活/瓶中人生 Bottled.Life.Nestles.Business.with.Water.2012.1080p.AMZN.WEBRip.DDP2.0.x264-NTG 6.36GB-1.png

译  名 瓶装生活 / 瓶中人生
片  名 Bottled Life: Nestle's Business with Water
年  代 2012
产  地 美国 / 瑞士 / 德国 / 埃塞俄比亚 / 尼日利亚 / 巴基斯坦
类  别 记载片 / 冒险
语  言 英语
IMDb评分  6.8/10 from 775 users
IMDb链接  https://www.imdb.com/title/tt2072910
豆瓣评分 0/10 from 0 users
豆瓣链接 https://movie.douban.com/subject/10581488/
片  长 90分钟
导  演 Urs Schnell
编  剧 Urs Schnell / Res Gehriger

标  签 记载片 | 美国 | 瑞士 | 2012 | 跨国公司 | 经济榨取 | 真相 | 德国

简  介  

  Do you know how to turn ordinary water into a billion-dollar business? In Switzerland there's a company which has developed the art to perfection - Nestlé. This company dominates the global business in bottled water. Swiss journalist Res Gehringer has investigated this money-making phenomena. Nestlé refused to cooperate, on the pretext that it was "the wrong film at the wrong time". So Gehringer went on a journey of exploration, researching the story in the USA, Nigeria and Pakistan. His journey into the world of bottled water reveals the schemes and strategies of the most powerful food and beverage company on our planet.
  1. Video
  2. ID                                       : 1
  3. Format                                   : AVC
  4. Format/Info                              : Advanced Video Codec
  5. Format profile                           : High@L4
  6. Format settings                          : CABAC / 4 Ref Frames
  7. Format settings, CABAC                   : Yes
  8. Format settings, Reference frames        : 4 frames
  9. Format settings, GOP                     : M=4, N=50
  10. Codec ID                                 : V_MPEG4/ISO/AVC
  11. Duration                                 : 1 h 29 min
  12. Bit rate mode                            : Constant
  13. Bit rate                                 : 10 000 kb/s
  14. Width                                    : 1 920 pixels
  15. Height                                   : 1 080 pixels
  16. Display aspect ratio                     : 16:9
  17. Frame rate mode                          : Constant
  18. Frame rate                               : 25.000 FPS
  19. Standard                                 : PAL
  20. Color space                              : YUV
  21. Chroma subsampling                       : 4:2:0
  22. Bit depth                                : 8 bits
  23. Scan type                                : Progressive
  24. Bits/(Pixel*Frame)                       : 0.193
  25. Stream size                              : 6.21 GiB (98%)
  26. Language                                 : English
  27. Default                                  : Yes
  28. Forced                                   : No
  29. Color range                              : Limited
  30. Color primaries                          : BT.709
  31. Transfer characteristics                 : BT.709
  32. Matrix coefficients                      : BT.709

  33. Audio
  34. ID                                       : 2
  35. Format                                   : E-AC-3
  36. Format/Info                              : Enhanced AC-3
  37. Commercial name                          : Dolby Digital Plus
  38. Codec ID                                 : A_EAC3
  39. Duration                                 : 1 h 29 min
  40. Bit rate mode                            : Constant
  41. Bit rate                                 : 224 kb/s
  42. Channel(s)                               : 2 channels
  43. Channel layout                           : L R
  44. Sampling rate                            : 48.0 kHz
  45. Frame rate                               : 31.250 FPS (1536 SPF)
  46. Compression mode                         : Lossy
  47. Stream size                              : 144 MiB (2%)
  48. Language                                 : English
  49. Service kind                             : Complete Main
  50. Default                                  : Yes
  51. Forced                                   : No

  52. Text #1
  53. ID                                       : 3
  54. Format                                   : UTF-8
  55. Codec ID                                 : S_TEXT/UTF8
  56. Codec ID/Info                            : UTF-8 Plain Text
  57. Duration                                 : 1 h 25 min
  58. Bit rate                                 : 87 b/s
  59. Count of elements                        : 1416
  60. Stream size                              : 54.6 KiB (0%)
  61. Language                                 : English
  62. Default                                  : No
  63. Forced                                   : No

  64. Text #2
  65. ID                                       : 4
  66. Format                                   : UTF-8
  67. Codec ID                                 : S_TEXT/UTF8
  68. Codec ID/Info                            : UTF-8 Plain Text
  69. Duration                                 : 1 h 28 min
  70. Bit rate                                 : 84 b/s
  71. Count of elements                        : 1502
  72. Stream size                              : 54.7 KiB (0%)
  73. Title                                    : SDH
  74. Language                                 : English
  75. Default                                  : No
  76. Forced                                   : No
复制代码

瓶装生活/瓶中人生 Bottled.Life.Nestles.Business.with.Water.2012.1080p.AMZN.WEBRip.DDP2.0.x264-NTG 6.36GB-2.png 瓶装生活/瓶中人生 Bottled.Life.Nestles.Business.with.Water.2012.1080p.AMZN.WEBRip.DDP2.0.x264-NTG 6.36GB-3.png 140936klss6alll87i6g8g.png







VIP会员免费任意下载本站所有资源!---点击开通
回复

使用道具 举报

懒得打字嘛,点击右侧快捷回复 【右侧内容,后台自定义】
您需要登录后才可以回帖 登录 | 立即注册

本版积分规则

QQ|Archiver|手机版|小黑屋| 中国高清网 |网站地图

GMT+8, 2019-11-20 09:02 , Processed in 0.270845 second(s), 37 queries .

Powered by HDchina X3.4

Copyright 2017-2019©HDchina.All right reserved

返回顶部 联系我们