查看: 69|回复: 1

[纪录片] 圣地亚哥漫展:新希望 Comic.Con.Episode.Iv.A.Fans.Hope.2011.1080p.BluRay.x264-HANDJOB 8.28GB

[复制链接]

 成长值: 3210

级别:资源管理组

注册时间
2017-10-20
最后登录
2019-11-20
听众
1
收听
0
主题
87221
蓝光币
63020 枚
贡献
11580 点
发表于 2019-11-8 14:07:57 | 显示全部楼层 |阅读模式
圣地亚哥漫展:新希望 Comic.Con.Episode.Iv.A.Fans.Hope.2011.1080p.BluRay.x264-HANDJOB 8.28GB-1.png

译  名 圣地亚哥漫展:新希望
片  名 Comic-Con Episode Four: A Fan's Hope
年  代 2011
产  地 美国
类  别 记载片
语  言 英语
上映日期 2011
IMDb评分  7.0/10 from 2657 users
IMDb链接  https://www.imdb.com/title/tt1605782
豆瓣评分 0/10 from 0 users
豆瓣链接 https://movie.douban.com/subject/4845767/
导  演 Morgan Spurlock
编  剧 Joss Whedon
主  演 塞斯·罗根 Seth Rogen
       凯文·史姑娘 Kevin Smith
       伊莱·罗斯 Eli Roth
       托马斯·简 Thomas Jane
       阿德里安妮·库瑞 Adrianne Curry
       保罗·迪尼 Paul Dini
       斯坦·李 Stan Lee
       乔斯·韦登 Joss Whedon
       科里·费尔德曼 Corey Feldman
       格兰特·莫里森 Grant Morrison
       吉尔莫·德尔·托罗 Guillermo del Toro
       弗兰克·米勒 Frank Miller


标  签 记载片 | 美国 | 电影 | 死宅 | Documentary | 2010s | 迷友 | 文化现象

简  介  

  A behind-the-scenes look at the fans who gather by the thousands each year in San Diego, California to attend Comic-Con, the world's largest comic book convention.
  1. Video
  2. ID                                       : 1
  3. Format                                   : AVC
  4. Format/Info                              : Advanced Video Codec
  5. Format profile                           : High@L4
  6. Format settings                          : CABAC / 4 Ref Frames
  7. Format settings, CABAC                   : Yes
  8. Format settings, Reference frames        : 4 frames
  9. Codec ID                                 : V_MPEG4/ISO/AVC
  10. Duration                                 : 1 h 26 min
  11. Bit rate                                 : 13.0 Mb/s
  12. Width                                    : 1 920 pixels
  13. Height                                   : 1 080 pixels
  14. Display aspect ratio                     : 16:9
  15. Frame rate mode                          : Constant
  16. Frame rate                               : 23.976 (24000/1001) FPS
  17. Color space                              : YUV
  18. Chroma subsampling                       : 4:2:0
  19. Bit depth                                : 8 bits
  20. Scan type                                : Progressive
  21. Bits/(Pixel*Frame)                       : 0.262
  22. Stream size                              : 7.88 GiB (95%)
  23. Writing library                          : x264 core 157 r2935 545de2f
  24. Encoding settings                        : cabac=1 / ref=4 / deblock=1:-3:-3 / analyse=0x3:0x133 / me=umh / subme=9 / psy=1 / psy_rd=1.00:0.00 / mixed_ref=1 / me_range=24 / chroma_me=1 / trellis=2 / 8x8dct=1 / cqm=0 / deadzone=21,11 / fast_pskip=0 / chroma_qp_offset=-2 / threads=12 / lookahead_threads=1 / sliced_threads=0 / nr=0 / decimate=1 / interlaced=0 / bluray_compat=0 / constrained_intra=0 / bframes=5 / b_pyramid=2 / b_adapt=2 / b_bias=0 / direct=3 / weightb=1 / open_gop=0 / weightp=2 / keyint=240 / keyint_min=24 / scenecut=40 / intra_refresh=0 / rc_lookahead=50 / rc=crf / mbtree=0 / crf=20.5 / qcomp=0.60 / qpmin=0 / qpmax=69 / qpstep=4 / vbv_maxrate=62500 / vbv_bufsize=78125 / crf_max=0.0 / nal_hrd=none / filler=0 / ip_ratio=1.40 / pb_ratio=1.30 / aq=2:1.00
  25. Default                                  : Yes
  26. Forced                                   : No
  27. Color range                              : Limited
  28. Color primaries                          : BT.709
  29. Transfer characteristics                 : BT.709
  30. Matrix coefficients                      : BT.709

  31. Audio
  32. ID                                       : 2
  33. Format                                   : AC-3
  34. Format/Info                              : Audio Coding 3
  35. Commercial name                          : Dolby Digital
  36. Codec ID                                 : A_AC3
  37. Duration                                 : 1 h 26 min
  38. Bit rate mode                            : Constant
  39. Bit rate                                 : 640 kb/s
  40. Channel(s)                               : 6 channels
  41. Channel layout                           : L R C LFE Ls Rs
  42. Sampling rate                            : 48.0 kHz
  43. Frame rate                               : 31.250 FPS (1536 SPF)
  44. Bit depth                                : 16 bits
  45. Compression mode                         : Lossy
  46. Stream size                              : 396 MiB (5%)
  47. Language                                 : English
  48. Service kind                             : Complete Main
  49. Default                                  : Yes
  50. Forced                                   : No

  51. Text
  52. ID                                       : 3
  53. Format                                   : PGS
  54. Muxing mode                              : zlib
  55. Codec ID                                 : S_HDMV/PGS
  56. Codec ID/Info                            : Picture based subtitle format used on BDs/HD-DVDs
  57. Duration                                 : 1 h 26 min
  58. Bit rate                                 : 76.8 kb/s
  59. Count of elements                        : 3256
  60. Stream size                              : 47.3 MiB (1%)
  61. Language                                 : English
  62. Default                                  : No
  63. Forced                                   : No

  64. Menu
  65. 00:00:00.000                             : :Chapter 1
  66. 00:06:04.197                             : :Chapter 2
  67. 00:11:46.497                             : :Chapter 3
  68. 00:17:19.956                             : :Chapter 4
  69. 00:22:16.919                             : :Chapter 5
  70. 00:28:35.005                             : :Chapter 6
  71. 00:33:22.292                             : :Chapter 7
  72. 00:39:00.880                             : :Chapter 8
  73. 00:44:31.669                             : :Chapter 9
  74. 00:50:31.529                             : :Chapter 10
  75. 00:55:22.820                             : :Chapter 11
  76. 01:03:40.317                             : :Chapter 12
  77. 01:09:05.183                             : :Chapter 13
  78. 01:12:44.068                             : :Chapter 14
  79. 01:16:31.462                             : :Chapter 15
  80. 01:23:37.679                             : :Chapter 16
复制代码

圣地亚哥漫展:新希望 Comic.Con.Episode.Iv.A.Fans.Hope.2011.1080p.BluRay.x264-HANDJOB 8.28GB-2.png 圣地亚哥漫展:新希望 Comic.Con.Episode.Iv.A.Fans.Hope.2011.1080p.BluRay.x264-HANDJOB 8.28GB-3.png 圣地亚哥漫展:新希望 Comic.Con.Episode.Iv.A.Fans.Hope.2011.1080p.BluRay.x264-HANDJOB 8.28GB-4.png






VIP会员免费任意下载本站所有资源!---点击开通
回复

使用道具 举报

级别:普通观众 Lv.2

注册时间
2019-11-2
最后登录
2019-11-19
听众
0
收听
0
主题
0
蓝光币
32 枚
贡献
0 点
发表于 2019-11-8 19:59:38 | 显示全部楼层
楼主发贴辛苦了,谢谢楼主分享!我觉得中国高清电影网是注册对了!
VIP会员免费任意下载本站所有资源!---点击开通
回复

使用道具 举报

懒得打字嘛,点击右侧快捷回复 【右侧内容,后台自定义】
您需要登录后才可以回帖 登录 | 立即注册

本版积分规则

QQ|Archiver|手机版|小黑屋| 中国高清网 |网站地图

GMT+8, 2019-11-20 09:50 , Processed in 0.261660 second(s), 37 queries .

Powered by HDchina X3.4

Copyright 2017-2019©HDchina.All right reserved

返回顶部 联系我们