查看: 45|回复: 1

[恐怖片] 死寂逃亡/寂静杀机 The.Silence.2019.1080p.BluRay.REMUX.AVC.DTS-HR.5.1-FGT 22.67GB

[复制链接]

 成长值: 3160

级别:资源管理组

注册时间
2017-10-20
最后登录
2019-11-11
听众
1
收听
0
主题
86761
蓝光币
61811 枚
贡献
11119 点
发表于 7 天前 | 显示全部楼层 |阅读模式
死寂流亡/寂静杀机 The.Silence.2019.1080p.BluRay.REMUX.AVC.DTS-HR.5.1-FGT 22.67GB-1.png

译  名 死寂流亡 / 寂静杀机(台) / 收声刹(港)
片  名 The Silence
年  代 2019
产  地 德国 / 美国
类  别 可骇
语  言 英语
上映日期 2019-04-10(美国) / 2019-08-30(中国大陆)
IMDb评分  5.2/10 from 26171 users
IMDb链接  http://www.imdb.com/title/tt7315484
豆瓣评分 5.4/10 from 7877 users
豆瓣链接 https://movie.douban.com/subject/27050133/
片  长 90分钟
导  演 约翰·R·莱昂耐迪 John R. Leonetti
编  剧 凯莉·凡·戴克 Carey Van Dyke / 肖恩·范·戴克 Shane Van Dyke / 蒂姆·雷柏 Tim Lebbon
主  演 琪兰·席普卡 Kiernan Shipka
       斯坦利·图齐 Stanley Tucci
       米兰达·奥图 Miranda Otto
       约翰·考伯特 John Corbett
       凯尔·布瑞特科夫 Kyle Breitkopf
       邓普斯·布瑞克 Dempsey Bryk
       比利·麦克莱伦 Billy MacLellan
       萨拉·阿伯特 Sarah Abbott
       泰勒·拉芙 Taylor Love


标  签 惊悚 | 可骇 | 美国 | 2019 | Netflix | 末日 | 奇异 | 灾难

简  介  

  天下各地忽然出现不明嗜血生物,它们靠声音狩猎,捕食人类,致使全球堕入庞大发急。失聪少女艾丽·安德鲁斯(琪兰·席普卡 饰)和家人被迫踏上危机四伏的流亡之旅,但是更大的危险悄但是至。
  1. Video
  2. ID                                       : 1
  3. Format                                   : AVC
  4. Format/Info                              : Advanced Video Codec
  5. Format profile                           : High@L4
  6. Format settings                          : CABAC / 4 Ref Frames
  7. Format settings, CABAC                   : Yes
  8. Format settings, Reference frames        : 4 frames
  9. Codec ID                                 : V_MPEG4/ISO/AVC
  10. Duration                                 : 1 h 30 min
  11. Bit rate mode                            : Variable
  12. Bit rate                                 : 33.7 Mb/s
  13. Maximum bit rate                         : 39.0 Mb/s
  14. Width                                    : 1 920 pixels
  15. Height                                   : 1 080 pixels
  16. Display aspect ratio                     : 16:9
  17. Frame rate mode                          : Constant
  18. Frame rate                               : 23.976 (24000/1001) FPS
  19. Color space                              : YUV
  20. Chroma subsampling                       : 4:2:0
  21. Bit depth                                : 8 bits
  22. Scan type                                : Progressive
  23. Bits/(Pixel*Frame)                       : 0.678
  24. Stream size                              : 21.4 GiB (94%)
  25. Title                                    : The.Silence.2019.1080p.BluRay.REMUX.AVC.DTS-HR.5.1-FGT
  26. Language                                 : English
  27. Default                                  : No
  28. Forced                                   : No

  29. Audio
  30. ID                                       : 2
  31. Format                                   : DTS XBR
  32. Format/Info                              : Digital Theater Systems
  33. Commercial name                          : DTS-HD High Resolution Audio
  34. Codec ID                                 : A_DTS
  35. Duration                                 : 1 h 30 min
  36. Bit rate mode                            : Constant
  37. Bit rate                                 : 2 046 kb/s
  38. Channel(s)                               : 6 channels
  39. Channel layout                           : C L R Ls Rs LFE
  40. Sampling rate                            : 48.0 kHz
  41. Frame rate                               : 93.750 FPS (512 SPF)
  42. Bit depth                                : 24 bits
  43. Compression mode                         : Lossy
  44. Stream size                              : 1.30 GiB (6%)
  45. Title                                    : The.Silence.2019.1080p.BluRay.REMUX.AVC.DTS-HR.5.1-FGT
  46. Language                                 : English
  47. Default                                  : Yes
  48. Forced                                   : No

  49. Text #1
  50. ID                                       : 3
  51. Format                                   : UTF-8
  52. Codec ID                                 : S_TEXT/UTF8
  53. Codec ID/Info                            : UTF-8 Plain Text
  54. Duration                                 : 1 h 17 min
  55. Bit rate                                 : 1 b/s
  56. Count of elements                        : 46
  57. Stream size                              : 1.11 KiB (0%)
  58. Title                                    : English-FORCED-SRT
  59. Language                                 : English
  60. Default                                  : Yes
  61. Forced                                   : Yes

  62. Text #2
  63. ID                                       : 4
  64. Format                                   : UTF-8
  65. Codec ID                                 : S_TEXT/UTF8
  66. Codec ID/Info                            : UTF-8 Plain Text
  67. Duration                                 : 1 h 23 min
  68. Bit rate                                 : 26 b/s
  69. Count of elements                        : 591
  70. Stream size                              : 15.9 KiB (0%)
  71. Title                                    : English-SRT
  72. Language                                 : English
  73. Default                                  : No
  74. Forced                                   : No

  75. Text #3
  76. ID                                       : 5
  77. Format                                   : UTF-8
  78. Codec ID                                 : S_TEXT/UTF8
  79. Codec ID/Info                            : UTF-8 Plain Text
  80. Duration                                 : 1 h 24 min
  81. Bit rate                                 : 40 b/s
  82. Count of elements                        : 921
  83. Stream size                              : 25.2 KiB (0%)
  84. Title                                    : English-SDH-SRT
  85. Language                                 : English
  86. Default                                  : No
  87. Forced                                   : No

  88. Menu
  89. 00:00:00.000                             : en:Chapter 01
  90. 00:07:22.775                             : en:Chapter 02
  91. 00:12:34.211                             : en:Chapter 03
  92. 00:19:55.777                             : en:Chapter 04
  93. 00:25:23.730                             : en:Chapter 05
  94. 00:31:16.666                             : en:Chapter 06
  95. 00:36:58.216                             : en:Chapter 07
  96. 00:44:31.293                             : en:Chapter 08
  97. 00:50:23.437                             : en:Chapter 09
  98. 00:58:07.942                             : en:Chapter 10
  99. 01:03:35.603                             : en:Chapter 11
  100. 01:07:56.655                             : en:Chapter 12
  101. 01:15:00.287                             : en:Chapter 13
  102. 01:20:15.560                             : en:Chapter 14
  103. 01:24:45.205                             : en:Chapter 15
复制代码

死寂流亡/寂静杀机 The.Silence.2019.1080p.BluRay.REMUX.AVC.DTS-HR.5.1-FGT 22.67GB-2.png 死寂流亡/寂静杀机 The.Silence.2019.1080p.BluRay.REMUX.AVC.DTS-HR.5.1-FGT 22.67GB-3.png 死寂流亡/寂静杀机 The.Silence.2019.1080p.BluRay.REMUX.AVC.DTS-HR.5.1-FGT 22.67GB-4.png







VIP会员免费任意下载本站所有资源!---点击开通
回复

使用道具 举报

级别:群众演员 Lv.3

注册时间
2018-1-26
最后登录
2019-11-15
听众
3
收听
0
主题
0
蓝光币
3 枚
贡献
0 点
发表于 昨天 09:08 | 显示全部楼层
██████在-线-看-片bxxp7.c o m 】██████

██████在-线-看-片
bxxp7.c o m 】██████

██████在-线-看-片
bxxp7.c o m 】██████

██████在-线-看-片
bxxp7.c o m 】██████

██████在-线-看-片
bxxp7.c o m 】██████

██████在-线-看-片
bxxp7.c o m 】██████

██████在-线-看-片
bxxp7.c o m 】██████
VIP会员免费任意下载本站所有资源!---点击开通
回复

使用道具 举报

懒得打字嘛,点击右侧快捷回复 【右侧内容,后台自定义】
您需要登录后才可以回帖 登录 | 立即注册

本版积分规则

QQ|Archiver|手机版|小黑屋| 中国高清网 |网站地图 

GMT+8, 2019-11-15 07:28 , Processed in 0.246775 second(s), 37 queries .

Powered by HDchina X3.4

Copyright 2017-2019©HDchina.All right reserved

返回顶部 联系我们