查看: 61|回复: 0

[剧情片] 虐待 Manhandled.1924.1080p.BluRay.x264-LATENCY 4.37GB

[复制链接]

 成长值: 3160

级别:资源管理组

注册时间
2017-10-20
最后登录
2019-11-11
听众
1
收听
0
主题
86761
蓝光币
61861 枚
贡献
11119 点
发表于 7 天前 | 显示全部楼层 |阅读模式
凌虐 Manhandled.1924.1080p.BluRay.x264-LATENCY 4.37GB-1.png

译  名 凌虐
片  名 Manhandled
年  代 1924
产  地 美国
类  别 剧情 / 笑剧
上映日期 1924
IMDb评分  6.5/10 from 922 users
IMDb链接  https://www.imdb.com/title/tt0015116
豆瓣评分 0/10 from 0 users
豆瓣链接 https://movie.douban.com/subject/5077875/
片  长 USA: 75 分钟
导  演 Allan Dwan
编  剧 Julian Johnson
主  演 葛洛丽亚·斯旺森 Gloria Swanson
       莉莲·塔斯曼 Lilyan Tashman
       Tom Moore
       Ian Keith
       Arthur Housman
       弗兰克·摩根 Frank Morgan
       Paul McAllister


标  签 默片 | 1924中國 | 1920s | 美国 | 美國 | 的 | 吃紧吃紧吃紧吃紧吃紧吃紧吃紧吃紧吃紧吃紧吃紧吃紧吃紧 | tik

简  介  

  暂无相关剧情先容
  1. Video
  2. ID                                       : 1
  3. Format                                   : AVC
  4. Format/Info                              : Advanced Video Codec
  5. Format profile                           : High@L4
  6. Format settings                          : CABAC / 5 Ref Frames
  7. Format settings, CABAC                   : Yes
  8. Format settings, Reference frames        : 5 frames
  9. Codec ID                                 : V_MPEG4/ISO/AVC
  10. Duration                                 : 1 h 2 min
  11. Bit rate                                 : 8 427 kb/s
  12. Width                                    : 1 440 pixels
  13. Height                                   : 1 080 pixels
  14. Display aspect ratio                     : 4:3
  15. Frame rate mode                          : Constant
  16. Frame rate                               : 23.976 (24000/1001) FPS
  17. Color space                              : YUV
  18. Chroma subsampling                       : 4:2:0
  19. Bit depth                                : 8 bits
  20. Scan type                                : Progressive
  21. Bits/(Pixel*Frame)                       : 0.226
  22. Stream size                              : 3.71 GiB (85%)
  23. Writing library                          : x264 core 157 r2969 d4099dd
  24. Encoding settings                        : cabac=1 / ref=5 / deblock=1:0:0 / analyse=0x3:0x113 / me=umh / subme=8 / psy=1 / psy_rd=1.00:0.00 / mixed_ref=1 / me_range=16 / chroma_me=1 / trellis=2 / 8x8dct=1 / cqm=0 / deadzone=21,11 / fast_pskip=0 / chroma_qp_offset=-2 / threads=34 / lookahead_threads=5 / sliced_threads=0 / nr=0 / decimate=1 / interlaced=0 / bluray_compat=0 / constrained_intra=0 / bframes=3 / b_pyramid=2 / b_adapt=1 / b_bias=0 / direct=3 / weightb=1 / open_gop=0 / weightp=2 / keyint=250 / keyint_min=23 / scenecut=40 / intra_refresh=0 / rc_lookahead=50 / rc=2pass / mbtree=1 / bitrate=8427 / ratetol=1.0 / qcomp=0.60 / qpmin=0 / qpmax=69 / qpstep=4 / cplxblur=20.0 / qblur=0.5 / ip_ratio=1.40 / aq=1:1.00
  25. Default                                  : Yes
  26. Forced                                   : No

  27. Audio
  28. ID                                       : 2
  29. Format                                   : DTS
  30. Format/Info                              : Digital Theater Systems
  31. Codec ID                                 : A_DTS
  32. Duration                                 : 1 h 2 min
  33. Bit rate mode                            : Constant
  34. Bit rate                                 : 1 509 kb/s
  35. Channel(s)                               : 2 channels
  36. Channel layout                           : L R
  37. Sampling rate                            : 48.0 kHz
  38. Frame rate                               : 93.750 FPS (512 SPF)
  39. Bit depth                                : 24 bits
  40. Compression mode                         : Lossy
  41. Stream size                              : 680 MiB (15%)
  42. Title                                    : English
  43. Language                                 : English
  44. Default                                  : No
  45. Forced                                   : No

  46. Menu
  47. 00:00:00.000                             : en:Chapter 01
  48. 00:05:55.897                             : en:Chapter 02
  49. 00:13:19.507                             : en:Chapter 03
  50. 00:19:32.546                             : en:Chapter 04
  51. 00:26:45.646                             : en:Chapter 05
  52. 00:34:09.256                             : en:Chapter 06
  53. 00:40:15.121                             : en:Chapter 07
  54. 00:49:08.863                             : en:Chapter 08
  55. 00:51:28.669                             : en:Chapter 09
  56. 00:54:34.313                             : en:Chapter 10
复制代码

凌虐 Manhandled.1924.1080p.BluRay.x264-LATENCY 4.37GB-2.png







VIP会员免费任意下载本站所有资源!---点击开通
回复

使用道具 举报

懒得打字嘛,点击右侧快捷回复 【右侧内容,后台自定义】
您需要登录后才可以回帖 登录 | 立即注册

本版积分规则

QQ|Archiver|手机版|小黑屋| 中国高清网 |网站地图 

GMT+8, 2019-11-15 10:54 , Processed in 0.258377 second(s), 37 queries .

Powered by HDchina X3.4

Copyright 2017-2019©HDchina.All right reserved

返回顶部 联系我们