查看: 45|回复: 0

[剧情片] 婚礼之后/你愿意嫁给我老公吗? After.The.Wedding.2019.1080p.BluRay.REMUX.AVC.DTS-HD.MA.5.1-FGT 17.75GB

[复制链接]

 成长值: 3230

级别:资源管理组

注册时间
2017-10-20
最后登录
2019-11-21
听众
1
收听
0
主题
87390
蓝光币
63614 枚
贡献
11749 点
发表于 2019-11-8 14:03:55 | 显示全部楼层 |阅读模式
婚礼以后/你愿意嫁给我老公吗? After.The.Wedding.2019.1080p.BluRay.REMUX.AVC.DTS-HD.MA.5.1-FGT 17.75GB-1.png

译  名 婚礼以后 / 你愿意嫁给我老公吗?(台)
片  名 After the Wedding
年  代 2019
产  地 美国
类  别 剧情
语  言 英语
上映日期 2019-01-24(圣丹斯电影节) / 2019-08-09(美国)
IMDb评分  6.0/10 from 1082 users
IMDb链接  https://www.imdb.com/title/tt7985692
豆瓣评分 6.9/10 from 61 users
豆瓣链接 https://movie.douban.com/subject/30142420/
片  长 110分钟
导  演 巴特·弗伦德里希 Bart Freundlich
编  剧 巴特·弗伦德里希 Bart Freundlich / 苏珊娜·比尔 Susanne Bier / 安诺斯·托马斯·延森 Anders Thomas Jensen
主  演 朱丽安·摩尔 Julianne Moore
       米歇尔·威廉姆斯 Michelle Williams
       比利·克鲁德普 Billy Crudup
       威尔·切斯 Will Chase
       桃乐丝·麦卡锡 Doris McCarthy
       艾比·奎因 Abby Quinn
       伊萨·戴维斯 Eisa Davis
       艾奇·罗伯逊 Azhy Robertson
       亚历克斯·克兰默 Alex Cranmer
       苏珊·布莱克威尔 Susan Blackwell
       Alex Esola
       Mackenzie Owens
       Eric D. Hill Jr.
       Jeff Kim
       Ron Simons
       Ruth Barrie


标  签 美国 | JulianneMoore | 剧情 | 2019 | MichelleWilliams | 朱丽安·摩尔 | 圣丹斯电影节 | 电影

简  介  

  朱丽安·摩尔将出演新版苏珊娜·比尔作品[婚礼以后]。这部新片由咩姨老公巴特·弗伦德里希执导,故事将重新构建为两位女主在纽约发生的故事(原作俩男主是麦斯·米科尔森和罗夫·拉斯加德[doge])。摩尔将饰演成功经营媒体公司的女富豪特丽莎·杨,碰到伊莎贝尔以后,她的生活发生了意想不到的改变。伊莎贝尔在印度加尔各答经营一家孤儿院,她来到美国寻觅一位捐助者。Cornerstone Films将在柏林电影节的欧洲电影市场买卖这一项目,并于今春起头启动。
  1. Video
  2. ID                                       : 1
  3. Format                                   : AVC
  4. Format/Info                              : Advanced Video Codec
  5. Format profile                           : High@L4
  6. Format settings                          : CABAC / 3 Ref Frames
  7. Format settings, CABAC                   : Yes
  8. Format settings, Reference frames        : 3 frames
  9. Codec ID                                 : V_MPEG4/ISO/AVC
  10. Duration                                 : 1 h 52 min
  11. Bit rate mode                            : Variable
  12. Bit rate                                 : 21.0 Mb/s
  13. Maximum bit rate                         : 40.0 Mb/s
  14. Width                                    : 1 920 pixels
  15. Height                                   : 1 080 pixels
  16. Display aspect ratio                     : 16:9
  17. Frame rate mode                          : Constant
  18. Frame rate                               : 23.976 (24000/1001) FPS
  19. Color space                              : YUV
  20. Chroma subsampling                       : 4:2:0
  21. Bit depth                                : 8 bits
  22. Scan type                                : Progressive
  23. Bits/(Pixel*Frame)                       : 0.422
  24. Stream size                              : 15.9 GiB (90%)
  25. Title                                    : After.The.Wedding.2019.1080p.BluRay.REMUX.AVC.DTS-HD.MA.5.1-FGT
  26. Writing library                          : x264 core 148 r2694bm 3b70645
  27. Encoding settings                        : cabac=1 / ref=4 / deblock=1:0:0 / analyse=0x3:0x133 / me=umh / subme=10 / psy=1 / psy_rd=1.00:0.00 / mixed_ref=1 / me_range=24 / chroma_me=1 / trellis=2 / 8x8dct=1 / cqm=0 / deadzone=21,11 / fast_pskip=1 / chroma_qp_offset=-2 / threads=12 / lookahead_threads=1 / sliced_threads=0 / slices=4 / nr=0 / decimate=1 / interlaced=0 / bluray_compat=1 / constrained_intra=0 / bframes=3 / b_pyramid=1 / b_adapt=2 / b_bias=0 / direct=3 / weightb=1 / open_gop=1 / weightp=1 / keyint=24 / keyint_min=1 / scenecut=40 / intra_refresh=0 / rc_lookahead=24 / rc=abr / mbtree=1 / bitrate=21000 / ratetol=1.0 / qcomp=0.60 / qpmin=0 / qpmax=69 / qpstep=4 / vbv_maxrate=40000 / vbv_bufsize=30000 / nal_hrd=vbr / filler=0 / ip_ratio=1.40 / aq=1:1.00
  28. Language                                 : English
  29. Default                                  : No
  30. Forced                                   : No
  31. Color range                              : Limited
  32. Color primaries                          : BT.709
  33. Transfer characteristics                 : BT.709
  34. Matrix coefficients                      : BT.709

  35. Audio #1
  36. ID                                       : 2
  37. Format                                   : DTS XLL
  38. Format/Info                              : Digital Theater Systems
  39. Commercial name                          : DTS-HD Master Audio
  40. Codec ID                                 : A_DTS
  41. Duration                                 : 1 h 52 min
  42. Bit rate mode                            : Variable
  43. Bit rate                                 : 1 833 kb/s
  44. Channel(s)                               : 6 channels
  45. Channel layout                           : C L R Ls Rs LFE
  46. Sampling rate                            : 48.0 kHz
  47. Frame rate                               : 93.750 FPS (512 SPF)
  48. Bit depth                                : 16 bits
  49. Compression mode                         : Lossless
  50. Stream size                              : 1.44 GiB (8%)
  51. Title                                    : After.The.Wedding.2019.1080p.BluRay.REMUX.AVC.DTS-HD.MA.5.1-FGT
  52. Language                                 : English
  53. Default                                  : Yes
  54. Forced                                   : No

  55. Audio #2
  56. ID                                       : 3
  57. Format                                   : AC-3
  58. Format/Info                              : Audio Coding 3
  59. Commercial name                          : Dolby Digital
  60. Codec ID                                 : A_AC3
  61. Duration                                 : 1 h 52 min
  62. Bit rate mode                            : Constant
  63. Bit rate                                 : 448 kb/s
  64. Channel(s)                               : 6 channels
  65. Channel layout                           : L R C LFE Ls Rs
  66. Sampling rate                            : 48.0 kHz
  67. Frame rate                               : 31.250 FPS (1536 SPF)
  68. Bit depth                                : 16 bits
  69. Compression mode                         : Lossy
  70. Stream size                              : 359 MiB (2%)
  71. Title                                    : After.The.Wedding.2019.1080p.BluRay.REMUX.AVC.DTS-HD.MA.5.1-FGT
  72. Language                                 : English
  73. Service kind                             : Complete Main
  74. Default                                  : No
  75. Forced                                   : No

  76. Text #1
  77. ID                                       : 4
  78. Format                                   : UTF-8
  79. Codec ID                                 : S_TEXT/UTF8
  80. Codec ID/Info                            : UTF-8 Plain Text
  81. Duration                                 : 1 h 40 min
  82. Bit rate                                 : 57 b/s
  83. Count of elements                        : 1213
  84. Stream size                              : 42.0 KiB (0%)
  85. Title                                    : English-SRT
  86. Language                                 : English
  87. Default                                  : Yes
  88. Forced                                   : No

  89. Text #2
  90. ID                                       : 5
  91. Format                                   : PGS
  92. Muxing mode                              : zlib
  93. Codec ID                                 : S_HDMV/PGS
  94. Codec ID/Info                            : Picture based subtitle format used on BDs/HD-DVDs
  95. Duration                                 : 1 h 40 min
  96. Bit rate                                 : 34.8 kb/s
  97. Count of elements                        : 1782
  98. Stream size                              : 25.0 MiB (0%)
  99. Title                                    : English-PGS
  100. Language                                 : English
  101. Default                                  : No
  102. Forced                                   : No

  103. Text #3
  104. ID                                       : 6
  105. Format                                   : PGS
  106. Muxing mode                              : zlib
  107. Codec ID                                 : S_HDMV/PGS
  108. Codec ID/Info                            : Picture based subtitle format used on BDs/HD-DVDs
  109. Duration                                 : 1 h 49 min
  110. Bit rate                                 : 35.5 kb/s
  111. Count of elements                        : 2040
  112. Stream size                              : 27.8 MiB (0%)
  113. Title                                    : English-SDH-PGS
  114. Language                                 : English
  115. Default                                  : No
  116. Forced                                   : No

  117. Text #4
  118. ID                                       : 7
  119. Format                                   : PGS
  120. Muxing mode                              : zlib
  121. Codec ID                                 : S_HDMV/PGS
  122. Codec ID/Info                            : Picture based subtitle format used on BDs/HD-DVDs
  123. Duration                                 : 1 h 49 min
  124. Bit rate                                 : 22.6 kb/s
  125. Count of elements                        : 1787
  126. Stream size                              : 17.6 MiB (0%)
  127. Title                                    : French-PGS
  128. Language                                 : French
  129. Default                                  : No
  130. Forced                                   : No

  131. Menu
  132. 00:00:00.000                             : en:Chapter 01
  133. 00:08:05.067                             : en:Chapter 02
  134. 00:15:13.829                             : en:Chapter 03
  135. 00:22:07.451                             : en:Chapter 04
  136. 00:30:10.266                             : en:Chapter 05
  137. 00:38:53.372                             : en:Chapter 06
  138. 00:47:39.481                             : en:Chapter 07
  139. 00:53:22.866                             : en:Chapter 08
  140. 01:01:20.968                             : en:Chapter 09
  141. 01:03:26.844                             : en:Chapter 10
  142. 01:08:04.330                             : en:Chapter 11
  143. 01:13:55.764                             : en:Chapter 12
  144. 01:17:27.267                             : en:Chapter 13
  145. 01:23:40.557                             : en:Chapter 14
  146. 01:31:48.628                             : en:Chapter 15
  147. 01:38:52.134                             : en:Chapter 16
复制代码

婚礼以后/你愿意嫁给我老公吗? After.The.Wedding.2019.1080p.BluRay.REMUX.AVC.DTS-HD.MA.5.1-FGT 17.75GB-2.png 婚礼以后/你愿意嫁给我老公吗? After.The.Wedding.2019.1080p.BluRay.REMUX.AVC.DTS-HD.MA.5.1-FGT 17.75GB-3.png 婚礼以后/你愿意嫁给我老公吗? After.The.Wedding.2019.1080p.BluRay.REMUX.AVC.DTS-HD.MA.5.1-FGT 17.75GB-4.png







VIP会员免费任意下载本站所有资源!---点击开通
回复

使用道具 举报

懒得打字嘛,点击右侧快捷回复 【右侧内容,后台自定义】
您需要登录后才可以回帖 登录 | 立即注册

本版积分规则

QQ|Archiver|手机版|小黑屋| 中国高清网 |网站地图

GMT+8, 2019-11-22 03:19 , Processed in 0.256776 second(s), 37 queries .

Powered by HDchina X3.4

Copyright 2017-2019©HDchina.All right reserved

返回顶部 联系我们