查看: 28|回复: 2

[剧情片] 光盲青春/摇滚青春颂 Blinded.by.the.Light.2019.1080p.BluRay.REMUX.AVC.DTS-HD.MA.TrueHD.7.1.Atmos-FGT 25.81GB

[复制链接]

 成长值: 3160

级别:资源管理组

注册时间
2017-10-20
最后登录
2019-11-11
听众
1
收听
0
主题
86761
蓝光币
61813 枚
贡献
11119 点
发表于 7 天前 | 显示全部楼层 |阅读模式
光盲青春/摇滚青春颂 Blinded.by.the.Light.2019.1080p.BluRay.REMUX.AVC.DTS-HD.MA.TrueHD.7.1.Atmos-FGT 25.81GB-1.png

译  名 光盲青春 / 摇滚青春颂(港) / 夺目之光(台)
片  名 Blinded by the Light
年  代 2019
产  地 英国
类  别 剧情 / 笑剧 / 歌舞 / 列传
语  言 英语
上映日期 2019-01-27(圣丹斯电影节) / 2019-08-09(英国)
IMDb评分  7.0/10 from 4935 users
IMDb链接  http://www.imdb.com/title/tt8266310
豆瓣评分 7.0/10 from 136 users
豆瓣链接 https://movie.douban.com/subject/30200414/
片  长 114分钟(圣丹斯电影节)
导  演 顾伦德·查达哈 Gurinder Chadha
编  剧 顾伦德·查达哈 Gurinder Chadha / 保罗·梅达·贝哲斯 Paul Mayeda Berges / 萨弗拉齐·曼苏 Sarfraz Manzoor
主  演 海莉·阿特维尔 Hayley Atwell
       维韦克·卡拉 Viveik Kalra
       莎莉·菲利普斯 Sally Phillips
       艾伦·菲格拉 Aaron Phagura
       迪恩·查尔斯·查普曼 Dean-Charles Chapman
       内尔·威廉姆斯 Nell Williams
       罗伯·布莱顿 Rob Brydon
       文森特·阿德里安 Vincent Andriano
       保罗·布莱克维尔 Paul Blackwell
       约诺·戴维斯 Jonno Davies
       奥利维亚·波莉 Olivia Poulet
       乔·惠特利 Jo Wheatley
       贾格·帕特尔 Jag Patel
       史蒂芬·萨姆森 Stephen Samson
       阿图尔·夏尔马 Atul Sharma
       阿什克·阿赫塔尔 Asheq Akhtar


标  签 英国 | 青春 | 2019 | 音乐 | 剧情 | 80年月怀旧 | 美国 | 家庭

简  介  

  报告的是1987年在英格兰一个小城镇里一个十几岁的移民男孩经过男歌手布鲁斯·斯普林斯汀的音乐找到理想、信心和自在的故事。
  1. Video
  2. ID                                       : 1
  3. Format                                   : AVC
  4. Format/Info                              : Advanced Video Codec
  5. Format profile                           : High@L4
  6. Format settings                          : CABAC / 4 Ref Frames
  7. Format settings, CABAC                   : Yes
  8. Format settings, Reference frames        : 4 frames
  9. Codec ID                                 : V_MPEG4/ISO/AVC
  10. Duration                                 : 1 h 57 min
  11. Bit rate mode                            : Variable
  12. Bit rate                                 : 21.6 Mb/s
  13. Maximum bit rate                         : 24.0 Mb/s
  14. Width                                    : 1 920 pixels
  15. Height                                   : 1 080 pixels
  16. Display aspect ratio                     : 16:9
  17. Frame rate mode                          : Constant
  18. Frame rate                               : 23.976 (24000/1001) FPS
  19. Color space                              : YUV
  20. Chroma subsampling                       : 4:2:0
  21. Bit depth                                : 8 bits
  22. Scan type                                : Progressive
  23. Bits/(Pixel*Frame)                       : 0.434
  24. Stream size                              : 17.8 GiB (69%)
  25. Title                                    : Blinded.by.the.Light.2019.1080p.BluRay.REMUX.AVC.DTS-HD.MA.TrueHD.7.1.Atmos-FGT
  26. Language                                 : English
  27. Default                                  : No
  28. Forced                                   : No

  29. Audio #1
  30. ID                                       : 2
  31. Format                                   : MLP FBA 16-ch
  32. Format/Info                              : Meridian Lossless Packing FBA with 16-channel presentation
  33. Commercial name                          : Dolby TrueHD with Dolby Atmos
  34. Codec ID                                 : A_TRUEHD
  35. Duration                                 : 1 h 57 min
  36. Bit rate mode                            : Variable
  37. Bit rate                                 : 3 703 kb/s
  38. Maximum bit rate                         : 5 883 kb/s
  39. Channel(s)                               : 8 channels
  40. Channel layout                           : L R C LFE Ls Rs Lb Rb
  41. Sampling rate                            : 48.0 kHz
  42. Frame rate                               : 1 200.000 FPS (40 SPF)
  43. Compression mode                         : Lossless
  44. Stream size                              : 3.05 GiB (12%)
  45. Title                                    : Blinded.by.the.Light.2019.1080p.BluRay.REMUX.AVC.DTS-HD.MA.TrueHD.7.1.Atmos-FGT
  46. Language                                 : English
  47. Default                                  : Yes
  48. Forced                                   : No
  49. Number of dynamic objects                : 15
  50. Bed channel count                        : 1 channel
  51. Bed channel configuration                : LFE

  52. Audio #2
  53. ID                                       : 3
  54. Format                                   : DTS XLL
  55. Format/Info                              : Digital Theater Systems
  56. Commercial name                          : DTS-HD Master Audio
  57. Codec ID                                 : A_DTS
  58. Duration                                 : 1 h 57 min
  59. Bit rate mode                            : Variable
  60. Bit rate                                 : 4 598 kb/s
  61. Channel(s)                               : 8 channels
  62. Channel layout                           : C L R LFE Lb Rb Lss Rss
  63. Sampling rate                            : 48.0 kHz
  64. Frame rate                               : 93.750 FPS (512 SPF)
  65. Bit depth                                : 24 bits
  66. Compression mode                         : Lossless
  67. Stream size                              : 3.78 GiB (15%)
  68. Title                                    : Blinded.by.the.Light.2019.1080p.BluRay.REMUX.AVC.DTS-HD.MA.TrueHD.7.1.Atmos-FGT
  69. Language                                 : English
  70. Default                                  : No
  71. Forced                                   : No

  72. Audio #3
  73. ID                                       : 4
  74. Format                                   : AC-3
  75. Format/Info                              : Audio Coding 3
  76. Commercial name                          : Dolby Digital
  77. Codec ID                                 : A_AC3
  78. Duration                                 : 1 h 57 min
  79. Bit rate mode                            : Constant
  80. Bit rate                                 : 448 kb/s
  81. Channel(s)                               : 6 channels
  82. Channel layout                           : L R C LFE Ls Rs
  83. Sampling rate                            : 48.0 kHz
  84. Frame rate                               : 31.250 FPS (1536 SPF)
  85. Bit depth                                : 16 bits
  86. Compression mode                         : Lossy
  87. Stream size                              : 377 MiB (1%)
  88. Title                                    : Blinded.by.the.Light.2019.1080p.BluRay.REMUX.AVC.DTS-HD.MA.TrueHD.7.1.Atmos-FGT
  89. Language                                 : English
  90. Service kind                             : Complete Main
  91. Default                                  : No
  92. Forced                                   : No

  93. Audio #4
  94. ID                                       : 5
  95. Format                                   : AC-3
  96. Format/Info                              : Audio Coding 3
  97. Commercial name                          : Dolby Digital
  98. Codec ID                                 : A_AC3
  99. Duration                                 : 1 h 57 min
  100. Bit rate mode                            : Constant
  101. Bit rate                                 : 448 kb/s
  102. Channel(s)                               : 6 channels
  103. Channel layout                           : L R C LFE Ls Rs
  104. Sampling rate                            : 48.0 kHz
  105. Frame rate                               : 31.250 FPS (1536 SPF)
  106. Bit depth                                : 16 bits
  107. Compression mode                         : Lossy
  108. Stream size                              : 377 MiB (1%)
  109. Title                                    : Blinded.by.the.Light.2019.1080p.BluRay.REMUX.AVC.DTS-HD.MA.TrueHD.7.1.Atmos-FGT
  110. Language                                 : English
  111. Service kind                             : Complete Main
  112. Default                                  : No
  113. Forced                                   : No

  114. Audio #5
  115. ID                                       : 6
  116. Format                                   : AC-3
  117. Format/Info                              : Audio Coding 3
  118. Commercial name                          : Dolby Digital
  119. Codec ID                                 : A_AC3
  120. Duration                                 : 1 h 57 min
  121. Bit rate mode                            : Constant
  122. Bit rate                                 : 448 kb/s
  123. Channel(s)                               : 6 channels
  124. Channel layout                           : L R C LFE Ls Rs
  125. Sampling rate                            : 48.0 kHz
  126. Frame rate                               : 31.250 FPS (1536 SPF)
  127. Bit depth                                : 16 bits
  128. Compression mode                         : Lossy
  129. Stream size                              : 377 MiB (1%)
  130. Title                                    : Blinded.by.the.Light.2019.1080p.BluRay.REMUX.AVC.DTS-HD.MA.TrueHD.7.1.Atmos-FGT
  131. Language                                 : Portuguese
  132. Service kind                             : Complete Main
  133. Default                                  : No
  134. Forced                                   : No

  135. Text #1
  136. ID                                       : 7
  137. Format                                   : UTF-8
  138. Codec ID                                 : S_TEXT/UTF8
  139. Codec ID/Info                            : UTF-8 Plain Text
  140. Duration                                 : 1 h 50 min
  141. Bit rate                                 : 61 b/s
  142. Count of elements                        : 1635
  143. Stream size                              : 49.8 KiB (0%)
  144. Title                                    : English-SRT
  145. Language                                 : English
  146. Default                                  : Yes
  147. Forced                                   : No

  148. Text #2
  149. ID                                       : 8
  150. Format                                   : PGS
  151. Muxing mode                              : zlib
  152. Codec ID                                 : S_HDMV/PGS
  153. Codec ID/Info                            : Picture based subtitle format used on BDs/HD-DVDs
  154. Duration                                 : 1 h 50 min
  155. Bit rate                                 : 36.7 kb/s
  156. Count of elements                        : 3272
  157. Stream size                              : 28.9 MiB (0%)
  158. Title                                    : English-PGS
  159. Language                                 : English
  160. Default                                  : No
  161. Forced                                   : No

  162. Text #3
  163. ID                                       : 9
  164. Format                                   : PGS
  165. Muxing mode                              : zlib
  166. Codec ID                                 : S_HDMV/PGS
  167. Codec ID/Info                            : Picture based subtitle format used on BDs/HD-DVDs
  168. Duration                                 : 1 h 56 min
  169. Bit rate                                 : 27.3 kb/s
  170. Count of elements                        : 2992
  171. Stream size                              : 22.9 MiB (0%)
  172. Title                                    : French-PGS
  173. Language                                 : French
  174. Default                                  : No
  175. Forced                                   : No

  176. Text #4
  177. ID                                       : 10
  178. Format                                   : PGS
  179. Muxing mode                              : zlib
  180. Codec ID                                 : S_HDMV/PGS
  181. Codec ID/Info                            : Picture based subtitle format used on BDs/HD-DVDs
  182. Duration                                 : 1 h 51 min
  183. Bit rate                                 : 33.1 kb/s
  184. Count of elements                        : 2690
  185. Stream size                              : 26.4 MiB (0%)
  186. Title                                    : Spanish-PGS
  187. Language                                 : Spanish
  188. Default                                  : No
  189. Forced                                   : No

  190. Text #5
  191. ID                                       : 11
  192. Format                                   : PGS
  193. Muxing mode                              : zlib
  194. Codec ID                                 : S_HDMV/PGS
  195. Codec ID/Info                            : Picture based subtitle format used on BDs/HD-DVDs
  196. Duration                                 : 1 h 56 min
  197. Bit rate                                 : 30.3 kb/s
  198. Count of elements                        : 2674
  199. Stream size                              : 25.3 MiB (0%)
  200. Title                                    : Portuguese-PGS
  201. Language                                 : Portuguese
  202. Default                                  : No
  203. Forced                                   : No

  204. Text #6
  205. ID                                       : 12
  206. Format                                   : PGS
  207. Muxing mode                              : zlib
  208. Codec ID                                 : S_HDMV/PGS
  209. Codec ID/Info                            : Picture based subtitle format used on BDs/HD-DVDs
  210. Duration                                 : 1 h 51 min
  211. Bit rate                                 : 2 884 b/s
  212. Count of elements                        : 240
  213. Stream size                              : 2.30 MiB (0%)
  214. Title                                    : Portuguese-FORCED-PGS
  215. Language                                 : Portuguese
  216. Default                                  : No
  217. Forced                                   : No

  218. Menu
  219. 00:00:00.000                             : en:Chapter 01
  220. 00:11:10.211                             : en:Chapter 02
  221. 00:20:03.660                             : en:Chapter 03
  222. 00:30:13.269                             : en:Chapter 04
  223. 00:39:49.595                             : en:Chapter 05
  224. 00:48:52.012                             : en:Chapter 06
  225. 00:58:27.212                             : en:Chapter 07
  226. 01:08:39.490                             : en:Chapter 08
  227. 01:19:01.820                             : en:Chapter 09
  228. 01:28:16.791                             : en:Chapter 10
  229. 01:40:07.042                             : en:Chapter 11
  230. 01:51:37.399                             : en:Chapter 12
复制代码

140219d7dz2283lu302n8u.png 光盲青春/摇滚青春颂 Blinded.by.the.Light.2019.1080p.BluRay.REMUX.AVC.DTS-HD.MA.TrueHD.7.1.Atmos-FGT 25.81GB-3.png 光盲青春/摇滚青春颂 Blinded.by.the.Light.2019.1080p.BluRay.REMUX.AVC.DTS-HD.MA.TrueHD.7.1.Atmos-FGT 25.81GB-4.png







VIP会员免费任意下载本站所有资源!---点击开通
回复

使用道具 举报

级别:普通观众 Lv.2

注册时间
2019-10-22
最后登录
2019-11-15
听众
0
收听
0
主题
0
蓝光币
60 枚
贡献
0 点
发表于 6 天前 | 显示全部楼层
楼主发贴辛苦了,谢谢楼主分享!我觉得中国高清电影网是注册对了!
VIP会员免费任意下载本站所有资源!---点击开通
回复

使用道具 举报

级别:群众演员 Lv.3

注册时间
2018-1-26
最后登录
2019-11-15
听众
3
收听
0
主题
0
蓝光币
3 枚
贡献
0 点
发表于 昨天 09:09 | 显示全部楼层
██████在-线-看-片bxxp7.c o m 】██████

██████在-线-看-片
bxxp7.c o m 】██████

██████在-线-看-片
bxxp7.c o m 】██████

██████在-线-看-片
bxxp7.c o m 】██████

██████在-线-看-片
bxxp7.c o m 】██████

██████在-线-看-片
bxxp7.c o m 】██████

██████在-线-看-片
bxxp7.c o m 】██████
VIP会员免费任意下载本站所有资源!---点击开通
回复

使用道具 举报

懒得打字嘛,点击右侧快捷回复 【右侧内容,后台自定义】
您需要登录后才可以回帖 登录 | 立即注册

本版积分规则

QQ|Archiver|手机版|小黑屋| 中国高清网 |网站地图 

GMT+8, 2019-11-15 08:01 , Processed in 0.284778 second(s), 37 queries .

Powered by HDchina X3.4

Copyright 2017-2019©HDchina.All right reserved

返回顶部 联系我们