查看: 28|回复: 1

[剧情片] 奥菲莉娅/奥菲丽娅 Ophelia.2018.1080p.BluRay.REMUX.AVC.DTS-HD.MA.5.1-FGT 24.49GB

[复制链接]

 成长值: 3160

级别:资源管理组

注册时间
2017-10-20
最后登录
2019-11-11
听众
1
收听
0
主题
86761
蓝光币
61811 枚
贡献
11119 点
发表于 7 天前 | 显示全部楼层 |阅读模式
奥菲莉娅/奥菲丽娅 Ophelia.2018.1080p.BluRay.REMUX.AVC.DTS-HD.MA.5.1-FGT 24.49GB-1.png

译  名 奥菲莉娅 / 奥菲丽娅
片  名 Ophelia
年  代 2018
产  地 美国 / 英国
类  别 剧情 / 恋爱
语  言 英语
上映日期 2018-01-22(圣丹斯电影节)
IMDb评分  7.0/10 from 1852 users
IMDb链接  http://www.imdb.com/title/tt5690810
豆瓣评分 6.2/10 from 76 users
豆瓣链接 https://movie.douban.com/subject/26786662/
片  长 114分钟
导  演 克莱尔·麦卡锡 Claire McCarthy
编  剧 塞米·切拉斯 Semi Chellas / 丽莎·克莱恩 Lisa Klein
主  演 娜奥米·沃茨 Naomi Watts
      黛西·雷德利 Daisy Ridley
      克里夫·欧文 Clive Owen
      乔治·麦凯 George MacKay
      汤姆·费尔顿 Tom Felton
      德文·特雷尔 Devon Terrell


标  签 莎士比亚 | NaomiWatts | 美国 | 女性 | 恋爱 | 剧情 | 美国电影 | 小说、戏剧改编

简  介  

  两次奥斯卡提名得主娜奥米·沃茨(Naomi Watts)和《星球大战7》主演戴茜·雷德利(Daisy Ridley)日前双双加盟电影《奥菲莉娅》(Ophelia),该片是对莎士比亚著名悲剧《哈姆雷特》(Hamlet)的一次重新设想,将报告原剧中未能报告的故事。
《哈姆雷特》是莎士比亚最著名的悲剧,报告了丹麦国王被弟弟迫害,以后凶手篡权夺位,并娶了嫂嫂王后。王子哈姆雷特悲愤不已,奥秘策划复仇大计,但是他本性傍边的犹豫游移终极致使全部工作走向了悲剧。
《奥菲莉娅》按照丽莎·克莱恩(Lisa Klein)同名获奖小说改编,故事从原剧中处于边沿地带的女性脚色奥菲莉娅的视角动身,描写了她眼中的哈姆雷特、她和哈姆雷特的悲剧恋爱宿命,已经她和哈姆雷特母亲之间的关系。
其中戴茜·雷德利将饰演配角“奥菲莉娅”(Ophelia),她是王后的心腹侍女,也是王子哈姆雷特的奥秘爱人;娜奥米·沃茨则将饰演哈姆雷特的妈妈、也就是王后乔特鲁德(Queen Gertrude)。
《奥菲莉娅》由新晋女导演克莱尔·麦卡锡(Claire McCarthy)执导,影片和小说一样,故事布景仍然设定在14世纪,但人物的说话都是现代话。

  1. Video
  2. ID                                       : 1
  3. Format                                   : AVC
  4. Format/Info                              : Advanced Video Codec
  5. Format profile                           : High@L4
  6. Format settings                          : CABAC / 4 Ref Frames
  7. Format settings, CABAC                   : Yes
  8. Format settings, Reference frames        : 4 frames
  9. Codec ID                                 : V_MPEG4/ISO/AVC
  10. Duration                                 : 1 h 46 min
  11. Bit rate mode                            : Constant
  12. Bit rate                                 : 28.4 Mb/s
  13. Nominal bit rate                         : 30.2 Mb/s
  14. Width                                    : 1 920 pixels
  15. Height                                   : 1 080 pixels
  16. Display aspect ratio                     : 16:9
  17. Frame rate mode                          : Constant
  18. Frame rate                               : 23.976 (24000/1001) FPS
  19. Color space                              : YUV
  20. Chroma subsampling                       : 4:2:0
  21. Bit depth                                : 8 bits
  22. Scan type                                : Progressive
  23. Bits/(Pixel*Frame)                       : 0.572
  24. Stream size                              : 21.1 GiB (86%)
  25. Title                                    : Ophelia.2018.1080p.BluRay.REMUX.AVC.DTS-HD.MA.5.1-FGT
  26. Language                                 : English
  27. Default                                  : No
  28. Forced                                   : No

  29. Audio #1
  30. ID                                       : 2
  31. Format                                   : DTS XLL
  32. Format/Info                              : Digital Theater Systems
  33. Commercial name                          : DTS-HD Master Audio
  34. Codec ID                                 : A_DTS
  35. Duration                                 : 1 h 46 min
  36. Bit rate mode                            : Variable
  37. Bit rate                                 : 2 858 kb/s
  38. Channel(s)                               : 6 channels
  39. Channel layout                           : C L R Ls Rs LFE
  40. Sampling rate                            : 48.0 kHz
  41. Frame rate                               : 93.750 FPS (512 SPF)
  42. Bit depth                                : 24 bits
  43. Compression mode                         : Lossless
  44. Stream size                              : 2.12 GiB (9%)
  45. Title                                    : Ophelia.2018.1080p.BluRay.REMUX.AVC.DTS-HD.MA.5.1-FGT
  46. Language                                 : English
  47. Default                                  : Yes
  48. Forced                                   : No

  49. Audio #2
  50. ID                                       : 3
  51. Format                                   : DTS XLL
  52. Format/Info                              : Digital Theater Systems
  53. Commercial name                          : DTS-HD Master Audio
  54. Codec ID                                 : A_DTS
  55. Duration                                 : 1 h 46 min
  56. Bit rate mode                            : Variable
  57. Bit rate                                 : 1 645 kb/s
  58. Channel(s)                               : 2 channels
  59. Channel layout                           : L R
  60. Sampling rate                            : 48.0 kHz
  61. Frame rate                               : 93.750 FPS (512 SPF)
  62. Bit depth                                : 24 bits
  63. Compression mode                         : Lossless
  64. Stream size                              : 1.22 GiB (5%)
  65. Title                                    : Ophelia.2018.1080p.BluRay.REMUX.AVC.DTS-HD.MA.5.1-FGT
  66. Language                                 : English
  67. Default                                  : No
  68. Forced                                   : No

  69. Text #1
  70. ID                                       : 4
  71. Format                                   : UTF-8
  72. Codec ID                                 : S_TEXT/UTF8
  73. Codec ID/Info                            : UTF-8 Plain Text
  74. Duration                                 : 1 h 43 min
  75. Bit rate                                 : 43 b/s
  76. Count of elements                        : 1231
  77. Stream size                              : 32.7 KiB (0%)
  78. Title                                    : English-SRT
  79. Language                                 : English
  80. Default                                  : Yes
  81. Forced                                   : No

  82. Text #2
  83. ID                                       : 5
  84. Format                                   : PGS
  85. Muxing mode                              : zlib
  86. Codec ID                                 : S_HDMV/PGS
  87. Codec ID/Info                            : Picture based subtitle format used on BDs/HD-DVDs
  88. Duration                                 : 1 h 45 min
  89. Bit rate                                 : 28.3 kb/s
  90. Count of elements                        : 2010
  91. Stream size                              : 21.3 MiB (0%)
  92. Title                                    : English-PGS
  93. Language                                 : English
  94. Default                                  : No
  95. Forced                                   : No

  96. Text #3
  97. ID                                       : 6
  98. Format                                   : PGS
  99. Muxing mode                              : zlib
  100. Codec ID                                 : S_HDMV/PGS
  101. Codec ID/Info                            : Picture based subtitle format used on BDs/HD-DVDs
  102. Duration                                 : 1 h 43 min
  103. Bit rate                                 : 27.2 kb/s
  104. Count of elements                        : 1785
  105. Stream size                              : 20.2 MiB (0%)
  106. Title                                    : Spanish-PGS
  107. Language                                 : Spanish
  108. Default                                  : No
  109. Forced                                   : No

  110. Menu
  111. 00:00:00.000                             : en:Chapter 01
  112. 00:08:51.614                             : en:Chapter 02
  113. 00:20:56.171                             : en:Chapter 03
  114. 00:29:32.687                             : en:Chapter 04
  115. 00:37:39.215                             : en:Chapter 05
  116. 00:47:27.928                             : en:Chapter 06
  117. 00:56:32.389                             : en:Chapter 07
  118. 01:08:10.002                             : en:Chapter 08
  119. 01:18:16.566                             : en:Chapter 09
  120. 01:26:01.239                             : en:Chapter 10
  121. 01:34:09.894                             : en:Chapter 11
  122. 01:39:58.158                             : en:Chapter 12
  123. 01:46:20.540                             : en:Chapter 13
复制代码

奥菲莉娅/奥菲丽娅 Ophelia.2018.1080p.BluRay.REMUX.AVC.DTS-HD.MA.5.1-FGT 24.49GB-2.png 奥菲莉娅/奥菲丽娅 Ophelia.2018.1080p.BluRay.REMUX.AVC.DTS-HD.MA.5.1-FGT 24.49GB-3.png 奥菲莉娅/奥菲丽娅 Ophelia.2018.1080p.BluRay.REMUX.AVC.DTS-HD.MA.5.1-FGT 24.49GB-4.png







VIP会员免费任意下载本站所有资源!---点击开通
回复

使用道具 举报

级别:群众演员 Lv.3

注册时间
2018-1-26
最后登录
2019-11-15
听众
3
收听
0
主题
0
蓝光币
3 枚
贡献
0 点
发表于 昨天 09:10 | 显示全部楼层
██████在-线-看-片bxxp7.c o m 】██████

██████在-线-看-片
bxxp7.c o m 】██████

██████在-线-看-片
bxxp7.c o m 】██████

██████在-线-看-片
bxxp7.c o m 】██████

██████在-线-看-片
bxxp7.c o m 】██████

██████在-线-看-片
bxxp7.c o m 】██████

██████在-线-看-片
bxxp7.c o m 】██████
VIP会员免费任意下载本站所有资源!---点击开通
回复

使用道具 举报

懒得打字嘛,点击右侧快捷回复 【右侧内容,后台自定义】
您需要登录后才可以回帖 登录 | 立即注册

本版积分规则

QQ|Archiver|手机版|小黑屋| 中国高清网 |网站地图 

GMT+8, 2019-11-15 07:27 , Processed in 0.243935 second(s), 37 queries .

Powered by HDchina X3.4

Copyright 2017-2019©HDchina.All right reserved

返回顶部 联系我们