查看: 55|回复: 0

[剧情片] 光盲青春/摇滚青春颂 Blinded.by.the.Light.2019.1080p.BluRay.x264.DTS-HD.MA.7.1-FGT 10.95GB

[复制链接]

 成长值: 3210

级别:资源管理组

注册时间
2017-10-20
最后登录
2019-11-20
听众
1
收听
0
主题
87221
蓝光币
63010 枚
贡献
11580 点
发表于 2019-11-8 13:51:20 | 显示全部楼层 |阅读模式
光盲青春/摇滚青春颂 Blinded.by.the.Light.2019.1080p.BluRay.x264.DTS-HD.MA.7.1-FGT 10.95GB-1.png

译  名 光盲青春 / 摇滚青春颂(港) / 夺目之光(台)
片  名 Blinded by the Light
年  代 2019
产  地 英国
类  别 剧情 / 笑剧 / 歌舞 / 列传
语  言 英语
上映日期 2019-01-27(圣丹斯电影节) / 2019-08-09(英国)
IMDb评分  7.0/10 from 4935 users
IMDb链接  http://www.imdb.com/title/tt8266310
豆瓣评分 7.0/10 from 136 users
豆瓣链接 https://movie.douban.com/subject/30200414/
片  长 114分钟(圣丹斯电影节)
导  演 顾伦德·查达哈 Gurinder Chadha
编  剧 顾伦德·查达哈 Gurinder Chadha / 保罗·梅达·贝哲斯 Paul Mayeda Berges / 萨弗拉齐·曼苏 Sarfraz Manzoor
主  演 海莉·阿特维尔 Hayley Atwell
       维韦克·卡拉 Viveik Kalra
       莎莉·菲利普斯 Sally Phillips
       艾伦·菲格拉 Aaron Phagura
       迪恩·查尔斯·查普曼 Dean-Charles Chapman
       内尔·威廉姆斯 Nell Williams
       罗伯·布莱顿 Rob Brydon
       文森特·阿德里安 Vincent Andriano
       保罗·布莱克维尔 Paul Blackwell
       约诺·戴维斯 Jonno Davies
       奥利维亚·波莉 Olivia Poulet
       乔·惠特利 Jo Wheatley
       贾格·帕特尔 Jag Patel
       史蒂芬·萨姆森 Stephen Samson
       阿图尔·夏尔马 Atul Sharma
       阿什克·阿赫塔尔 Asheq Akhtar


标  签 英国 | 青春 | 2019 | 音乐 | 剧情 | 80年月怀旧 | 美国 | 家庭

简  介  

  报告的是1987年在英格兰一个小城镇里一个十几岁的移民男孩经过男歌手布鲁斯·斯普林斯汀的音乐找到理想、信心和自在的故事。
  1. Video
  2. ID                                       : 1
  3. Format                                   : AVC
  4. Format/Info                              : Advanced Video Codec
  5. Format profile                           : High@L4
  6. Format settings                          : CABAC / 5 Ref Frames
  7. Format settings, CABAC                   : Yes
  8. Format settings, Reference frames        : 5 frames
  9. Codec ID                                 : V_MPEG4/ISO/AVC
  10. Duration                                 : 1 h 57 min
  11. Bit rate                                 : 8 653 kb/s
  12. Width                                    : 1 920 pixels
  13. Height                                   : 808 pixels
  14. Display aspect ratio                     : 2.40:1
  15. Frame rate mode                          : Constant
  16. Frame rate                               : 23.976 (24000/1001) FPS
  17. Color space                              : YUV
  18. Chroma subsampling                       : 4:2:0
  19. Bit depth                                : 8 bits
  20. Scan type                                : Progressive
  21. Bits/(Pixel*Frame)                       : 0.233
  22. Stream size                              : 7.12 GiB (65%)
  23. Title                                    : Blinded.by.the.Light.2019.1080p.BluRay.x264.DTS-HD.MA.7.1-FGT
  24. Writing library                          : x264 core 157 r2969 d4099dd
  25. Encoding settings                        : cabac=1 / ref=5 / deblock=1:0:0 / analyse=0x3:0x113 / me=umh / subme=8 / psy=1 / psy_rd=1.00:0.00 / mixed_ref=1 / me_range=16 / chroma_me=1 / trellis=2 / 8x8dct=1 / cqm=0 / deadzone=21,11 / fast_pskip=1 / chroma_qp_offset=-2 / threads=16 / lookahead_threads=2 / sliced_threads=0 / nr=0 / decimate=1 / interlaced=0 / bluray_compat=0 / constrained_intra=0 / bframes=3 / b_pyramid=2 / b_adapt=2 / b_bias=0 / direct=3 / weightb=1 / open_gop=0 / weightp=2 / keyint=240 / keyint_min=23 / scenecut=40 / intra_refresh=0 / rc_lookahead=50 / rc=2pass / mbtree=1 / bitrate=8653 / ratetol=1.0 / qcomp=0.60 / qpmin=0 / qpmax=69 / qpstep=4 / cplxblur=20.0 / qblur=0.5 / ip_ratio=1.40 / aq=1:1.00
  26. Default                                  : Yes
  27. Forced                                   : No

  28. Audio
  29. ID                                       : 2
  30. Format                                   : DTS XLL
  31. Format/Info                              : Digital Theater Systems
  32. Commercial name                          : DTS-HD Master Audio
  33. Codec ID                                 : A_DTS
  34. Duration                                 : 1 h 57 min
  35. Bit rate mode                            : Variable
  36. Bit rate                                 : 4 598 kb/s
  37. Channel(s)                               : 8 channels
  38. Channel layout                           : C L R LFE Lb Rb Lss Rss
  39. Sampling rate                            : 48.0 kHz
  40. Frame rate                               : 93.750 FPS (512 SPF)
  41. Bit depth                                : 24 bits
  42. Compression mode                         : Lossless
  43. Stream size                              : 3.78 GiB (35%)
  44. Title                                    : Blinded.by.the.Light.2019.1080p.BluRay.x264.DTS-HD.MA.7.1-FGT
  45. Language                                 : English
  46. Default                                  : Yes
  47. Forced                                   : No

  48. Text #1
  49. ID                                       : 3
  50. Format                                   : UTF-8
  51. Codec ID                                 : S_TEXT/UTF8
  52. Codec ID/Info                            : UTF-8 Plain Text
  53. Duration                                 : 1 h 50 min
  54. Bit rate                                 : 61 b/s
  55. Count of elements                        : 1635
  56. Stream size                              : 49.8 KiB (0%)
  57. Title                                    : English-SRT
  58. Language                                 : English
  59. Default                                  : Yes
  60. Forced                                   : No

  61. Text #2
  62. ID                                       : 4
  63. Format                                   : PGS
  64. Muxing mode                              : zlib
  65. Codec ID                                 : S_HDMV/PGS
  66. Codec ID/Info                            : Picture based subtitle format used on BDs/HD-DVDs
  67. Duration                                 : 1 h 50 min
  68. Bit rate                                 : 36.7 kb/s
  69. Count of elements                        : 3272
  70. Stream size                              : 28.9 MiB (0%)
  71. Title                                    : English-PGS
  72. Language                                 : English
  73. Default                                  : No
  74. Forced                                   : No

  75. Text #3
  76. ID                                       : 5
  77. Format                                   : PGS
  78. Muxing mode                              : zlib
  79. Codec ID                                 : S_HDMV/PGS
  80. Codec ID/Info                            : Picture based subtitle format used on BDs/HD-DVDs
  81. Duration                                 : 1 h 56 min
  82. Bit rate                                 : 27.3 kb/s
  83. Count of elements                        : 2992
  84. Stream size                              : 22.9 MiB (0%)
  85. Title                                    : French-PGS
  86. Language                                 : French
  87. Default                                  : No
  88. Forced                                   : No

  89. Text #4
  90. ID                                       : 6
  91. Format                                   : PGS
  92. Muxing mode                              : zlib
  93. Codec ID                                 : S_HDMV/PGS
  94. Codec ID/Info                            : Picture based subtitle format used on BDs/HD-DVDs
  95. Duration                                 : 1 h 51 min
  96. Bit rate                                 : 33.1 kb/s
  97. Count of elements                        : 2690
  98. Stream size                              : 26.4 MiB (0%)
  99. Title                                    : Spanish-PGS
  100. Language                                 : Spanish
  101. Default                                  : No
  102. Forced                                   : No

  103. Text #5
  104. ID                                       : 7
  105. Format                                   : PGS
  106. Muxing mode                              : zlib
  107. Codec ID                                 : S_HDMV/PGS
  108. Codec ID/Info                            : Picture based subtitle format used on BDs/HD-DVDs
  109. Duration                                 : 1 h 56 min
  110. Bit rate                                 : 30.3 kb/s
  111. Count of elements                        : 2674
  112. Stream size                              : 25.3 MiB (0%)
  113. Title                                    : Portuguese-PGS
  114. Language                                 : Portuguese
  115. Default                                  : No
  116. Forced                                   : No

  117. Text #6
  118. ID                                       : 8
  119. Format                                   : PGS
  120. Muxing mode                              : zlib
  121. Codec ID                                 : S_HDMV/PGS
  122. Codec ID/Info                            : Picture based subtitle format used on BDs/HD-DVDs
  123. Duration                                 : 1 h 51 min
  124. Bit rate                                 : 2 884 b/s
  125. Count of elements                        : 240
  126. Stream size                              : 2.30 MiB (0%)
  127. Title                                    : Portuguese-FORCED-PGS
  128. Language                                 : Portuguese
  129. Default                                  : No
  130. Forced                                   : No

  131. Menu
  132. 00:00:00.000                             : en:Chapter 01
  133. 00:11:10.211                             : en:Chapter 02
  134. 00:20:03.660                             : en:Chapter 03
  135. 00:30:13.269                             : en:Chapter 04
  136. 00:39:49.595                             : en:Chapter 05
  137. 00:48:52.012                             : en:Chapter 06
  138. 00:58:27.212                             : en:Chapter 07
  139. 01:08:39.490                             : en:Chapter 08
  140. 01:19:01.820                             : en:Chapter 09
  141. 01:28:16.791                             : en:Chapter 10
  142. 01:40:07.042                             : en:Chapter 11
  143. 01:51:37.399                             : en:Chapter 12
复制代码

光盲青春/摇滚青春颂 Blinded.by.the.Light.2019.1080p.BluRay.x264.DTS-HD.MA.7.1-FGT 10.95GB-2.png 光盲青春/摇滚青春颂 Blinded.by.the.Light.2019.1080p.BluRay.x264.DTS-HD.MA.7.1-FGT 10.95GB-3.png 光盲青春/摇滚青春颂 Blinded.by.the.Light.2019.1080p.BluRay.x264.DTS-HD.MA.7.1-FGT 10.95GB-4.png







VIP会员免费任意下载本站所有资源!---点击开通
回复

使用道具 举报

懒得打字嘛,点击右侧快捷回复 【右侧内容,后台自定义】
您需要登录后才可以回帖 登录 | 立即注册

本版积分规则

QQ|Archiver|手机版|小黑屋| 中国高清网 |网站地图

GMT+8, 2019-11-20 09:27 , Processed in 0.251697 second(s), 37 queries .

Powered by HDchina X3.4

Copyright 2017-2019©HDchina.All right reserved

返回顶部 联系我们