查看: 26|回复: 0

[剧情片] 光盲青春/摇滚青春颂 Blinded.by.the.Light.2019.1080p.BluRay.x264.TrueHD.7.1.Atmos-FGT 10.63GB

[复制链接]

 成长值: 3160

级别:资源管理组

注册时间
2017-10-20
最后登录
2019-11-11
听众
1
收听
0
主题
86761
蓝光币
61811 枚
贡献
11119 点
发表于 7 天前 | 显示全部楼层 |阅读模式
光盲青春/摇滚青春颂 Blinded.by.the.Light.2019.1080p.BluRay.x264.TrueHD.7.1.Atmos-FGT 10.63GB-1.png

译  名 光盲青春 / 摇滚青春颂(港) / 夺目之光(台)
片  名 Blinded by the Light
年  代 2019
产  地 英国
类  别 剧情 / 笑剧 / 歌舞 / 列传
语  言 英语
上映日期 2019-01-27(圣丹斯电影节) / 2019-08-09(英国)
IMDb评分  7.0/10 from 4935 users
IMDb链接  http://www.imdb.com/title/tt8266310
豆瓣评分 7.0/10 from 136 users
豆瓣链接 https://movie.douban.com/subject/30200414/
片  长 114分钟(圣丹斯电影节)
导  演 顾伦德·查达哈 Gurinder Chadha
编  剧 顾伦德·查达哈 Gurinder Chadha / 保罗·梅达·贝哲斯 Paul Mayeda Berges / 萨弗拉齐·曼苏 Sarfraz Manzoor
主  演 海莉·阿特维尔 Hayley Atwell
       维韦克·卡拉 Viveik Kalra
       莎莉·菲利普斯 Sally Phillips
       艾伦·菲格拉 Aaron Phagura
       迪恩·查尔斯·查普曼 Dean-Charles Chapman
       内尔·威廉姆斯 Nell Williams
       罗伯·布莱顿 Rob Brydon
       文森特·阿德里安 Vincent Andriano
       保罗·布莱克维尔 Paul Blackwell
       约诺·戴维斯 Jonno Davies
       奥利维亚·波莉 Olivia Poulet
       乔·惠特利 Jo Wheatley
       贾格·帕特尔 Jag Patel
       史蒂芬·萨姆森 Stephen Samson
       阿图尔·夏尔马 Atul Sharma
       阿什克·阿赫塔尔 Asheq Akhtar


标  签 英国 | 青春 | 2019 | 音乐 | 剧情 | 80年月怀旧 | 美国 | 家庭

简  介  

  报告的是1987年在英格兰一个小城镇里一个十几岁的移民男孩经过男歌手布鲁斯·斯普林斯汀的音乐找到理想、信心和自在的故事。
  1. Video
  2. ID                                       : 1
  3. Format                                   : AVC
  4. Format/Info                              : Advanced Video Codec
  5. Format profile                           : High@L4
  6. Format settings                          : CABAC / 5 Ref Frames
  7. Format settings, CABAC                   : Yes
  8. Format settings, Reference frames        : 5 frames
  9. Codec ID                                 : V_MPEG4/ISO/AVC
  10. Duration                                 : 1 h 57 min
  11. Bit rate                                 : 8 653 kb/s
  12. Width                                    : 1 920 pixels
  13. Height                                   : 808 pixels
  14. Display aspect ratio                     : 2.40:1
  15. Frame rate mode                          : Constant
  16. Frame rate                               : 23.976 (24000/1001) FPS
  17. Color space                              : YUV
  18. Chroma subsampling                       : 4:2:0
  19. Bit depth                                : 8 bits
  20. Scan type                                : Progressive
  21. Bits/(Pixel*Frame)                       : 0.233
  22. Stream size                              : 7.12 GiB (67%)
  23. Title                                    : Blinded.by.the.Light.2019.1080p.BluRay.x264.TrueHD.7.1.Atmos-FGT
  24. Writing library                          : x264 core 157 r2969 d4099dd
  25. Encoding settings                        : cabac=1 / ref=5 / deblock=1:0:0 / analyse=0x3:0x113 / me=umh / subme=8 / psy=1 / psy_rd=1.00:0.00 / mixed_ref=1 / me_range=16 / chroma_me=1 / trellis=2 / 8x8dct=1 / cqm=0 / deadzone=21,11 / fast_pskip=1 / chroma_qp_offset=-2 / threads=16 / lookahead_threads=2 / sliced_threads=0 / nr=0 / decimate=1 / interlaced=0 / bluray_compat=0 / constrained_intra=0 / bframes=3 / b_pyramid=2 / b_adapt=2 / b_bias=0 / direct=3 / weightb=1 / open_gop=0 / weightp=2 / keyint=240 / keyint_min=23 / scenecut=40 / intra_refresh=0 / rc_lookahead=50 / rc=2pass / mbtree=1 / bitrate=8653 / ratetol=1.0 / qcomp=0.60 / qpmin=0 / qpmax=69 / qpstep=4 / cplxblur=20.0 / qblur=0.5 / ip_ratio=1.40 / aq=1:1.00
  26. Default                                  : Yes
  27. Forced                                   : No

  28. Audio #1
  29. ID                                       : 2
  30. Format                                   : MLP FBA 16-ch
  31. Format/Info                              : Meridian Lossless Packing FBA with 16-channel presentation
  32. Commercial name                          : Dolby TrueHD with Dolby Atmos
  33. Codec ID                                 : A_TRUEHD
  34. Duration                                 : 1 h 57 min
  35. Bit rate mode                            : Variable
  36. Bit rate                                 : 3 703 kb/s
  37. Maximum bit rate                         : 5 883 kb/s
  38. Channel(s)                               : 8 channels
  39. Channel layout                           : L R C LFE Ls Rs Lb Rb
  40. Sampling rate                            : 48.0 kHz
  41. Frame rate                               : 1 200.000 FPS (40 SPF)
  42. Compression mode                         : Lossless
  43. Stream size                              : 3.05 GiB (29%)
  44. Title                                    : Blinded.by.the.Light.2019.1080p.BluRay.x264.TrueHD.7.1.Atmos-FGT
  45. Language                                 : English
  46. Default                                  : Yes
  47. Forced                                   : No
  48. Number of dynamic objects                : 15
  49. Bed channel count                        : 1 channel
  50. Bed channel configuration                : LFE

  51. Audio #2
  52. ID                                       : 3
  53. Format                                   : AC-3
  54. Format/Info                              : Audio Coding 3
  55. Commercial name                          : Dolby Digital
  56. Codec ID                                 : A_AC3
  57. Duration                                 : 1 h 57 min
  58. Bit rate mode                            : Constant
  59. Bit rate                                 : 448 kb/s
  60. Channel(s)                               : 6 channels
  61. Channel layout                           : L R C LFE Ls Rs
  62. Sampling rate                            : 48.0 kHz
  63. Frame rate                               : 31.250 FPS (1536 SPF)
  64. Bit depth                                : 16 bits
  65. Compression mode                         : Lossy
  66. Stream size                              : 377 MiB (3%)
  67. Title                                    : Blinded.by.the.Light.2019.1080p.BluRay.x264.TrueHD.7.1.Atmos-FGT
  68. Language                                 : English
  69. Service kind                             : Complete Main
  70. Default                                  : No
  71. Forced                                   : No

  72. Text #1
  73. ID                                       : 4
  74. Format                                   : UTF-8
  75. Codec ID                                 : S_TEXT/UTF8
  76. Codec ID/Info                            : UTF-8 Plain Text
  77. Duration                                 : 1 h 50 min
  78. Bit rate                                 : 61 b/s
  79. Count of elements                        : 1635
  80. Stream size                              : 49.8 KiB (0%)
  81. Title                                    : English-SRT
  82. Language                                 : English
  83. Default                                  : Yes
  84. Forced                                   : No

  85. Text #2
  86. ID                                       : 5
  87. Format                                   : PGS
  88. Muxing mode                              : zlib
  89. Codec ID                                 : S_HDMV/PGS
  90. Codec ID/Info                            : Picture based subtitle format used on BDs/HD-DVDs
  91. Duration                                 : 1 h 50 min
  92. Bit rate                                 : 36.7 kb/s
  93. Count of elements                        : 3272
  94. Stream size                              : 28.9 MiB (0%)
  95. Title                                    : English-PGS
  96. Language                                 : English
  97. Default                                  : No
  98. Forced                                   : No

  99. Text #3
  100. ID                                       : 6
  101. Format                                   : PGS
  102. Muxing mode                              : zlib
  103. Codec ID                                 : S_HDMV/PGS
  104. Codec ID/Info                            : Picture based subtitle format used on BDs/HD-DVDs
  105. Duration                                 : 1 h 56 min
  106. Bit rate                                 : 27.3 kb/s
  107. Count of elements                        : 2992
  108. Stream size                              : 22.9 MiB (0%)
  109. Title                                    : French-PGS
  110. Language                                 : French
  111. Default                                  : No
  112. Forced                                   : No

  113. Text #4
  114. ID                                       : 7
  115. Format                                   : PGS
  116. Muxing mode                              : zlib
  117. Codec ID                                 : S_HDMV/PGS
  118. Codec ID/Info                            : Picture based subtitle format used on BDs/HD-DVDs
  119. Duration                                 : 1 h 51 min
  120. Bit rate                                 : 33.1 kb/s
  121. Count of elements                        : 2690
  122. Stream size                              : 26.4 MiB (0%)
  123. Title                                    : Spanish-PGS
  124. Language                                 : Spanish
  125. Default                                  : No
  126. Forced                                   : No

  127. Text #5
  128. ID                                       : 8
  129. Format                                   : PGS
  130. Muxing mode                              : zlib
  131. Codec ID                                 : S_HDMV/PGS
  132. Codec ID/Info                            : Picture based subtitle format used on BDs/HD-DVDs
  133. Duration                                 : 1 h 56 min
  134. Bit rate                                 : 30.3 kb/s
  135. Count of elements                        : 2674
  136. Stream size                              : 25.3 MiB (0%)
  137. Title                                    : Portuguese-PGS
  138. Language                                 : Portuguese
  139. Default                                  : No
  140. Forced                                   : No

  141. Text #6
  142. ID                                       : 9
  143. Format                                   : PGS
  144. Muxing mode                              : zlib
  145. Codec ID                                 : S_HDMV/PGS
  146. Codec ID/Info                            : Picture based subtitle format used on BDs/HD-DVDs
  147. Duration                                 : 1 h 51 min
  148. Bit rate                                 : 2 884 b/s
  149. Count of elements                        : 240
  150. Stream size                              : 2.30 MiB (0%)
  151. Title                                    : Portuguese-FORCED-PGS
  152. Language                                 : Portuguese
  153. Default                                  : No
  154. Forced                                   : No

  155. Menu
  156. 00:00:00.000                             : en:Chapter 01
  157. 00:11:10.211                             : en:Chapter 02
  158. 00:20:03.660                             : en:Chapter 03
  159. 00:30:13.269                             : en:Chapter 04
  160. 00:39:49.595                             : en:Chapter 05
  161. 00:48:52.012                             : en:Chapter 06
  162. 00:58:27.212                             : en:Chapter 07
  163. 01:08:39.490                             : en:Chapter 08
  164. 01:19:01.820                             : en:Chapter 09
  165. 01:28:16.791                             : en:Chapter 10
  166. 01:40:07.042                             : en:Chapter 11
  167. 01:51:37.399                             : en:Chapter 12
复制代码

134944aef0dk5hhtfj4704.png 光盲青春/摇滚青春颂 Blinded.by.the.Light.2019.1080p.BluRay.x264.TrueHD.7.1.Atmos-FGT 10.63GB-3.png 134953iof1ibbm3d56igmb.png







VIP会员免费任意下载本站所有资源!---点击开通
回复

使用道具 举报

懒得打字嘛,点击右侧快捷回复 【右侧内容,后台自定义】
您需要登录后才可以回帖 登录 | 立即注册

本版积分规则

QQ|Archiver|手机版|小黑屋| 中国高清网 |网站地图 

GMT+8, 2019-11-15 07:27 , Processed in 0.250808 second(s), 37 queries .

Powered by HDchina X3.4

Copyright 2017-2019©HDchina.All right reserved

返回顶部 联系我们