查看: 67|回复: 2

[剧情片] 奥菲莉娅/奥菲丽娅 Ophelia.2018.1080p.BluRay.x264.DTS-HD.MA.5.1-FGT 8.97GB

[复制链接]

 成长值: 3160

级别:资源管理组

注册时间
2017-10-20
最后登录
2019-11-15
听众
1
收听
0
主题
86798
蓝光币
61952 枚
贡献
11156 点
发表于 7 天前 | 显示全部楼层 |阅读模式
134753sr9yz4830gd878kg.png

译  名 奥菲莉娅 / 奥菲丽娅
片  名 Ophelia
年  代 2018
产  地 美国 / 英国
类  别 剧情 / 恋爱
语  言 英语
上映日期 2018-01-22(圣丹斯电影节)
IMDb评分  7.0/10 from 1852 users
IMDb链接  http://www.imdb.com/title/tt5690810
豆瓣评分 6.2/10 from 76 users
豆瓣链接 https://movie.douban.com/subject/26786662/
片  长 114分钟
导  演 克莱尔·麦卡锡 Claire McCarthy
编  剧 塞米·切拉斯 Semi Chellas / 丽莎·克莱恩 Lisa Klein
主  演 娜奥米·沃茨 Naomi Watts
      黛西·雷德利 Daisy Ridley
      克里夫·欧文 Clive Owen
      乔治·麦凯 George MacKay
      汤姆·费尔顿 Tom Felton
      德文·特雷尔 Devon Terrell


标  签 莎士比亚 | NaomiWatts | 美国 | 女性 | 恋爱 | 剧情 | 美国电影 | 小说、戏剧改编

简  介  

  两次奥斯卡提名得主娜奥米·沃茨(Naomi Watts)和《星球大战7》主演戴茜·雷德利(Daisy Ridley)日前双双加盟电影《奥菲莉娅》(Ophelia),该片是对莎士比亚著名悲剧《哈姆雷特》(Hamlet)的一次重新设想,将报告原剧中未能报告的故事。
《哈姆雷特》是莎士比亚最著名的悲剧,报告了丹麦国王被弟弟迫害,以后凶手篡权夺位,并娶了嫂嫂王后。王子哈姆雷特悲愤不已,奥秘策划复仇大计,但是他本性傍边的犹豫游移终极致使全部工作走向了悲剧。
《奥菲莉娅》按照丽莎·克莱恩(Lisa Klein)同名获奖小说改编,故事从原剧中处于边沿地带的女性脚色奥菲莉娅的视角动身,描写了她眼中的哈姆雷特、她和哈姆雷特的悲剧恋爱宿命,已经她和哈姆雷特母亲之间的关系。
其中戴茜·雷德利将饰演配角“奥菲莉娅”(Ophelia),她是王后的心腹侍女,也是王子哈姆雷特的奥秘爱人;娜奥米·沃茨则将饰演哈姆雷特的妈妈、也就是王后乔特鲁德(Queen Gertrude)。
《奥菲莉娅》由新晋女导演克莱尔·麦卡锡(Claire McCarthy)执导,影片和小说一样,故事布景仍然设定在14世纪,但人物的说话都是现代话。

  1. Video
  2. ID                                       : 1
  3. Format                                   : AVC
  4. Format/Info                              : Advanced Video Codec
  5. Format profile                           : High@L4
  6. Format settings                          : CABAC / 5 Ref Frames
  7. Format settings, CABAC                   : Yes
  8. Format settings, Reference frames        : 5 frames
  9. Codec ID                                 : V_MPEG4/ISO/AVC
  10. Duration                                 : 1 h 46 min
  11. Bit rate                                 : 9 181 kb/s
  12. Width                                    : 1 920 pixels
  13. Height                                   : 808 pixels
  14. Display aspect ratio                     : 2.40:1
  15. Frame rate mode                          : Constant
  16. Frame rate                               : 23.976 (24000/1001) FPS
  17. Color space                              : YUV
  18. Chroma subsampling                       : 4:2:0
  19. Bit depth                                : 8 bits
  20. Scan type                                : Progressive
  21. Bits/(Pixel*Frame)                       : 0.247
  22. Stream size                              : 6.82 GiB (76%)
  23. Title                                    : Ophelia.2018.1080p.BluRay.x264.DTS-HD.MA.5.1-FGT
  24. Writing library                          : x264 core 158 r2984 3759fcb
  25. Encoding settings                        : cabac=1 / ref=5 / deblock=1:-3:-3 / analyse=0x3:0x113 / me=umh / subme=8 / psy=1 / psy_rd=1.00:0.00 / mixed_ref=1 / me_range=16 / chroma_me=1 / trellis=1 / 8x8dct=1 / cqm=0 / deadzone=21,11 / fast_pskip=1 / chroma_qp_offset=-2 / threads=25 / lookahead_threads=4 / sliced_threads=0 / nr=0 / decimate=1 / interlaced=0 / bluray_compat=0 / constrained_intra=0 / bframes=3 / b_pyramid=2 / b_adapt=1 / b_bias=0 / direct=3 / weightb=1 / open_gop=0 / weightp=2 / keyint=250 / keyint_min=23 / scenecut=40 / intra_refresh=0 / rc_lookahead=50 / rc=2pass / mbtree=1 / bitrate=9181 / ratetol=1.0 / qcomp=0.60 / qpmin=0 / qpmax=69 / qpstep=4 / cplxblur=20.0 / qblur=0.5 / ip_ratio=1.40 / aq=1:1.00
  26. Language                                 : English
  27. Default                                  : Yes
  28. Forced                                   : No

  29. Audio
  30. ID                                       : 2
  31. Format                                   : DTS XLL
  32. Format/Info                              : Digital Theater Systems
  33. Commercial name                          : DTS-HD Master Audio
  34. Codec ID                                 : A_DTS
  35. Duration                                 : 1 h 46 min
  36. Bit rate mode                            : Variable
  37. Bit rate                                 : 2 858 kb/s
  38. Channel(s)                               : 6 channels
  39. Channel layout                           : C L R Ls Rs LFE
  40. Sampling rate                            : 48.0 kHz
  41. Frame rate                               : 93.750 FPS (512 SPF)
  42. Bit depth                                : 24 bits
  43. Compression mode                         : Lossless
  44. Stream size                              : 2.12 GiB (24%)
  45. Title                                    : Ophelia.2018.1080p.BluRay.x264.DTS-HD.MA.5.1-FGT
  46. Language                                 : English
  47. Default                                  : Yes
  48. Forced                                   : No

  49. Text #1
  50. ID                                       : 3
  51. Format                                   : UTF-8
  52. Codec ID                                 : S_TEXT/UTF8
  53. Codec ID/Info                            : UTF-8 Plain Text
  54. Duration                                 : 1 h 43 min
  55. Bit rate                                 : 43 b/s
  56. Count of elements                        : 1231
  57. Stream size                              : 32.7 KiB (0%)
  58. Title                                    : English-SRT
  59. Language                                 : English
  60. Default                                  : Yes
  61. Forced                                   : No

  62. Text #2
  63. ID                                       : 4
  64. Format                                   : PGS
  65. Muxing mode                              : zlib
  66. Codec ID                                 : S_HDMV/PGS
  67. Codec ID/Info                            : Picture based subtitle format used on BDs/HD-DVDs
  68. Duration                                 : 1 h 45 min
  69. Bit rate                                 : 28.3 kb/s
  70. Count of elements                        : 2010
  71. Stream size                              : 21.3 MiB (0%)
  72. Title                                    : English-PGS
  73. Language                                 : English
  74. Default                                  : No
  75. Forced                                   : No

  76. Text #3
  77. ID                                       : 5
  78. Format                                   : PGS
  79. Muxing mode                              : zlib
  80. Codec ID                                 : S_HDMV/PGS
  81. Codec ID/Info                            : Picture based subtitle format used on BDs/HD-DVDs
  82. Duration                                 : 1 h 43 min
  83. Bit rate                                 : 27.2 kb/s
  84. Count of elements                        : 1785
  85. Stream size                              : 20.2 MiB (0%)
  86. Title                                    : Spanish-PGS
  87. Language                                 : Spanish
  88. Default                                  : No
  89. Forced                                   : No

  90. Menu
  91. 00:00:00.000                             : en:Chapter 01
  92. 00:08:51.614                             : en:Chapter 02
  93. 00:20:56.171                             : en:Chapter 03
  94. 00:29:32.687                             : en:Chapter 04
  95. 00:37:39.215                             : en:Chapter 05
  96. 00:47:27.928                             : en:Chapter 06
  97. 00:56:32.389                             : en:Chapter 07
  98. 01:08:10.002                             : en:Chapter 08
  99. 01:18:16.566                             : en:Chapter 09
  100. 01:26:01.239                             : en:Chapter 10
  101. 01:34:09.894                             : en:Chapter 11
  102. 01:39:58.158                             : en:Chapter 12
  103. 01:46:20.540                             : en:Chapter 13
复制代码

奥菲莉娅/奥菲丽娅 Ophelia.2018.1080p.BluRay.x264.DTS-HD.MA.5.1-FGT 8.97GB-2.png 奥菲莉娅/奥菲丽娅 Ophelia.2018.1080p.BluRay.x264.DTS-HD.MA.5.1-FGT 8.97GB-3.png 134806tqajsccnncjpcuza.png







VIP会员免费任意下载本站所有资源!---点击开通
回复

使用道具 举报

级别:普通观众 Lv.2

注册时间
2019-11-2
最后登录
2019-11-15
听众
0
收听
0
主题
0
蓝光币
29 枚
贡献
0 点
发表于 7 天前 | 显示全部楼层
楼主发贴辛苦了,谢谢楼主分享!我觉得中国高清电影网是注册对了!
VIP会员免费任意下载本站所有资源!---点击开通
回复

使用道具 举报

级别:普通观众 Lv.2

注册时间
2019-11-2
最后登录
2019-11-15
听众
0
收听
0
主题
0
蓝光币
29 枚
贡献
0 点
发表于 7 天前 | 显示全部楼层
楼主发贴辛苦了,谢谢楼主分享!我觉得中国高清电影网是注册对了!
VIP会员免费任意下载本站所有资源!---点击开通
回复

使用道具 举报

懒得打字嘛,点击右侧快捷回复 【右侧内容,后台自定义】
您需要登录后才可以回帖 登录 | 立即注册

本版积分规则

QQ|Archiver|手机版|小黑屋| 中国高清网 |网站地图 

GMT+8, 2019-11-15 21:00 , Processed in 0.226314 second(s), 37 queries .

Powered by HDchina X3.4

Copyright 2017-2019©HDchina.All right reserved

返回顶部 联系我们