查看: 16|回复: 0

[剧情片] 狮子王/狮子王真人版 The.Lion.King.2019.1080p.3D.BluRay.Half-OU.x264.DTS-HD.MA.7.1-FGT 20.39GB

[复制链接]

 成长值: 3160

级别:资源管理组

注册时间
2017-10-20
最后登录
2019-11-15
听众
1
收听
0
主题
86804
蓝光币
61954 枚
贡献
11162 点
发表于 7 天前 | 显示全部楼层 |阅读模式
狮子王/狮子王真人版 The.Lion.King.2019.1080p.3D.BluRay.Half-OU.x264.DTS-HD.MA.7.1-FGT 20.39GB-1.png

译  名 狮子王 / 狮子王真人版 / 狮子王实在版 / 狮子王真狮版
片  名 The Lion King
年  代 2019
产  地 美国
类  别 剧情 / 动画 / 冒险
语  言 英语 / 科萨语
上映日期 2019-07-12(中国大陆) / 2019-07-19(美国)
IMDb评分  7.1/10 from 104480 users
IMDb链接  http://www.imdb.com/title/tt6105098
豆瓣评分 7.4/10 from 196500 users
豆瓣链接 https://movie.douban.com/subject/26884354/
片  长 118分钟
导  演 乔恩·费儒 Jon Favreau
编  剧 杰夫·内桑森 Jeff Nathanson / 布兰达?查普曼 Brenda Chapman / 艾琳·梅琪 Irene Mecchi / 乔纳森·罗伯茨 Jonathan Roberts / 琳达·伍尔芙顿 Linda Woolverton
主  演 唐纳德·格洛弗 Donald Glover
       阿尔法·伍达德 Alfre Woodard
       詹姆斯·厄尔·琼斯 James Earl Jones
       切瓦特·埃加福特 Chiwetel Ejiofor
       科甘-迈克尔·凯 Keegan-Michael Key
       塞斯·罗根 Seth Rogen
       比利·艾希纳 Billy Eichner
       碧昂丝·诺尔斯 Beyoncé Knowles
       埃里克·安德烈 Eric André
       弗洛伦丝·卡松巴 Florence Kasumba
       约翰·卡尼 John Kani
       约翰·奥利弗 John Oliver
       艾米·塞德丽丝 Amy Sedaris


标  签 迪士尼 | 典范 | 动画 | 童年 | 美国 | 长大 | 2019 | 动物

简  介  

  非洲大草原上一轮红日冉冉升起,为高峻的乞力马扎罗山披上层金色的光纱,一切的动物涌向了同一个地方——光荣石,兴奋地期待着一个严重消息的公布:它们的国王木法沙将迎来自己的新生儿。
  这个新生儿就是小狮子辛巴,它是木法沙的法定接棒人、光荣石未来的国王。
  小狮子王辛巴在众多热情的朋友的陪伴下,不单履历了生射中最名誉的时辰,也遭受了最艰难的应战,最初终究成为了森林之王,也在循环往复生生不息的自然中体味诞生命的真义。

获奖情况  

  第5届豆瓣电影年度榜单(2018)
  最值得期待的外语电影(提名)
  1. Video
  2. ID                                       : 1
  3. Format                                   : AVC
  4. Format/Info                              : Advanced Video Codec
  5. Format profile                           : High@L4
  6. Format settings                          : CABAC / 3 Ref Frames
  7. Format settings, CABAC                   : Yes
  8. Format settings, Reference frames        : 3 frames
  9. Codec ID                                 : V_MPEG4/ISO/AVC
  10. Duration                                 : 1 h 58 min
  11. Bit rate                                 : 16.0 Mb/s
  12. Width                                    : 1 920 pixels
  13. Height                                   : 1 080 pixels
  14. Display aspect ratio                     : 16:9
  15. Frame rate mode                          : Constant
  16. Frame rate                               : 23.976 (24000/1001) FPS
  17. Color space                              : YUV
  18. Chroma subsampling                       : 4:2:0
  19. Bit depth                                : 8 bits
  20. Scan type                                : Progressive
  21. Bits/(Pixel*Frame)                       : 0.322
  22. Stream size                              : 13.2 GiB (65%)
  23. Title                                    : The.Lion.King.2019.1080p.3D.BluRay.Half-OU.x264.DTS-HD.MA.7.1-FGT
  24. Writing library                          : x264 core 148
  25. Encoding settings                        : cabac=1 / ref=3 / deblock=1:-1:-1 / analyse=0x3:0 / me=hex / subme=5 / psy=1 / psy_rd=1.00:0.00 / mixed_ref=0 / me_range=16 / chroma_me=1 / trellis=1 / 8x8dct=1 / cqm=0 / deadzone=21,11 / fast_pskip=0 / chroma_qp_offset=0 / threads=24 / lookahead_threads=6 / sliced_threads=0 / nr=0 / decimate=1 / interlaced=0 / bluray_compat=0 / constrained_intra=0 / bframes=2 / b_pyramid=0 / b_adapt=1 / b_bias=0 / direct=1 / weightb=0 / open_gop=0 / weightp=0 / keyint=24 / keyint_min=2 / scenecut=40 / intra_refresh=0 / rc=abr / mbtree=0 / bitrate=16000 / ratetol=1.0 / qcomp=0.60 / qpmin=0 / qpmax=69 / qpstep=4 / ip_ratio=1.40 / pb_ratio=1.30 / aq=1:1.00
  26. Default                                  : Yes
  27. Forced                                   : No
  28. Color range                              : Limited
  29. Color primaries                          : BT.709
  30. Transfer characteristics                 : BT.709
  31. Matrix coefficients                      : BT.709

  32. Audio #1
  33. ID                                       : 2
  34. Format                                   : DTS XLL
  35. Format/Info                              : Digital Theater Systems
  36. Commercial name                          : DTS-HD Master Audio
  37. Codec ID                                 : A_DTS
  38. Duration                                 : 1 h 58 min
  39. Bit rate mode                            : Variable
  40. Bit rate                                 : 5 091 kb/s
  41. Channel(s)                               : 8 channels
  42. Channel layout                           : C L R LFE Lb Rb Lss Rss
  43. Sampling rate                            : 48.0 kHz
  44. Frame rate                               : 93.750 FPS (512 SPF)
  45. Bit depth                                : 24 bits
  46. Compression mode                         : Lossless
  47. Stream size                              : 4.21 GiB (21%)
  48. Title                                    : The.Lion.King.2019.1080p.3D.BluRay.Half-OU.x264.DTS-HD.MA.7.1-FGT
  49. Language                                 : English
  50. Default                                  : Yes
  51. Forced                                   : No

  52. Audio #2
  53. ID                                       : 3
  54. Format                                   : DTS
  55. Format/Info                              : Digital Theater Systems
  56. Codec ID                                 : A_DTS
  57. Duration                                 : 1 h 58 min
  58. Bit rate mode                            : Constant
  59. Bit rate                                 : 1 509 kb/s
  60. Channel(s)                               : 6 channels
  61. Channel layout                           : C L R Ls Rs LFE
  62. Sampling rate                            : 48.0 kHz
  63. Frame rate                               : 93.750 FPS (512 SPF)
  64. Bit depth                                : 24 bits
  65. Compression mode                         : Lossy
  66. Stream size                              : 1.25 GiB (6%)
  67. Title                                    : The.Lion.King.2019.1080p.3D.BluRay.Half-OU.x264.DTS-HD.MA.7.1-FGT
  68. Language                                 : Spanish
  69. Default                                  : No
  70. Forced                                   : No

  71. Audio #3
  72. ID                                       : 4
  73. Format                                   : AC-3
  74. Format/Info                              : Audio Coding 3
  75. Commercial name                          : Dolby Digital
  76. Codec ID                                 : A_AC3
  77. Duration                                 : 1 h 58 min
  78. Bit rate mode                            : Constant
  79. Bit rate                                 : 320 kb/s
  80. Channel(s)                               : 2 channels
  81. Channel layout                           : L R
  82. Sampling rate                            : 48.0 kHz
  83. Frame rate                               : 31.250 FPS (1536 SPF)
  84. Bit depth                                : 16 bits
  85. Compression mode                         : Lossy
  86. Stream size                              : 271 MiB (1%)
  87. Title                                    : The.Lion.King.2019.1080p.3D.BluRay.Half-OU.x264.DTS-HD.MA.7.1-FGT
  88. Language                                 : English
  89. Service kind                             : Complete Main
  90. Default                                  : No
  91. Forced                                   : No

  92. Audio #4
  93. ID                                       : 5
  94. Format                                   : E-AC-3
  95. Format/Info                              : Enhanced AC-3
  96. Commercial name                          : Dolby Digital Plus
  97. Format profile                           : Blu-ray Disc
  98. Codec ID                                 : A_EAC3
  99. Duration                                 : 1 h 58 min
  100. Bit rate mode                            : Constant
  101. Bit rate                                 : 896 kb/s
  102. Channel(s)                               : 8 channels
  103. Channel layout                           : L R C LFE Ls Rs Lb Rb
  104. Sampling rate                            : 48.0 kHz
  105. Frame rate                               : 31.250 FPS (1536 SPF)
  106. Compression mode                         : Lossy
  107. Stream size                              : 758 MiB (4%)
  108. Title                                    : The.Lion.King.2019.1080p.3D.BluRay.Half-OU.x264.DTS-HD.MA.7.1-FGT
  109. Language                                 : French
  110. Service kind                             : Complete Main
  111. Default                                  : No
  112. Forced                                   : No

  113. Audio #5
  114. ID                                       : 6
  115. Format                                   : E-AC-3
  116. Format/Info                              : Enhanced AC-3
  117. Commercial name                          : Dolby Digital Plus
  118. Format profile                           : Blu-ray Disc
  119. Codec ID                                 : A_EAC3
  120. Duration                                 : 1 h 58 min
  121. Bit rate mode                            : Constant
  122. Bit rate                                 : 896 kb/s
  123. Channel(s)                               : 8 channels
  124. Channel layout                           : L R C LFE Ls Rs Lb Rb
  125. Sampling rate                            : 48.0 kHz
  126. Frame rate                               : 31.250 FPS (1536 SPF)
  127. Compression mode                         : Lossy
  128. Stream size                              : 758 MiB (4%)
  129. Title                                    : The.Lion.King.2019.1080p.3D.BluRay.Half-OU.x264.DTS-HD.MA.7.1-FGT
  130. Language                                 : German
  131. Service kind                             : Complete Main
  132. Default                                  : No
  133. Forced                                   : No

  134. Text #1
  135. ID                                       : 7
  136. Format                                   : PGS
  137. Muxing mode                              : zlib
  138. Codec ID                                 : S_HDMV/PGS
  139. Codec ID/Info                            : Picture based subtitle format used on BDs/HD-DVDs
  140. Duration                                 : 1 h 52 min
  141. Bit rate                                 : 48.8 kb/s
  142. Count of elements                        : 3420
  143. Stream size                              : 39.1 MiB (0%)
  144. Title                                    : English-PGS
  145. Language                                 : English
  146. Default                                  : Yes
  147. Forced                                   : No

  148. Text #2
  149. ID                                       : 8
  150. Format                                   : PGS
  151. Muxing mode                              : zlib
  152. Codec ID                                 : S_HDMV/PGS
  153. Codec ID/Info                            : Picture based subtitle format used on BDs/HD-DVDs
  154. Duration                                 : 1 h 55 min
  155. Bit rate                                 : 34.7 kb/s
  156. Count of elements                        : 2556
  157. Stream size                              : 28.8 MiB (0%)
  158. Title                                    : French-PGS
  159. Language                                 : French
  160. Default                                  : No
  161. Forced                                   : No

  162. Text #3
  163. ID                                       : 9
  164. Format                                   : PGS
  165. Muxing mode                              : zlib
  166. Codec ID                                 : S_HDMV/PGS
  167. Codec ID/Info                            : Picture based subtitle format used on BDs/HD-DVDs
  168. Duration                                 : 1 h 55 min
  169. Bit rate                                 : 38.4 kb/s
  170. Count of elements                        : 2850
  171. Stream size                              : 31.9 MiB (0%)
  172. Title                                    : German-PGS
  173. Language                                 : German
  174. Default                                  : No
  175. Forced                                   : No

  176. Text #4
  177. ID                                       : 10
  178. Format                                   : PGS
  179. Muxing mode                              : zlib
  180. Codec ID                                 : S_HDMV/PGS
  181. Codec ID/Info                            : Picture based subtitle format used on BDs/HD-DVDs
  182. Duration                                 : 1 h 55 min
  183. Bit rate                                 : 36.8 kb/s
  184. Count of elements                        : 2704
  185. Stream size                              : 30.5 MiB (0%)
  186. Title                                    : Spanish-PGS
  187. Language                                 : Spanish
  188. Default                                  : No
  189. Forced                                   : No

  190. Text #5
  191. ID                                       : 11
  192. Format                                   : PGS
  193. Muxing mode                              : zlib
  194. Codec ID                                 : S_HDMV/PGS
  195. Codec ID/Info                            : Picture based subtitle format used on BDs/HD-DVDs
  196. Duration                                 : 1 h 43 min
  197. Bit rate                                 : 30 b/s
  198. Count of elements                        : 4
  199. Stream size                              : 23.0 KiB (0%)
  200. Title                                    : French-FORCED-PGS
  201. Language                                 : French
  202. Default                                  : No
  203. Forced                                   : No

  204. Text #6
  205. ID                                       : 12
  206. Format                                   : PGS
  207. Muxing mode                              : zlib
  208. Codec ID                                 : S_HDMV/PGS
  209. Codec ID/Info                            : Picture based subtitle format used on BDs/HD-DVDs
  210. Duration                                 : 4 s 588 ms
  211. Bit rate                                 : 37.9 kb/s
  212. Count of elements                        : 2
  213. Stream size                              : 21.2 KiB (0%)
  214. Title                                    : German-FORCED-PGS
  215. Language                                 : German
  216. Default                                  : No
  217. Forced                                   : No

  218. Text #7
  219. ID                                       : 13
  220. Format                                   : PGS
  221. Muxing mode                              : zlib
  222. Codec ID                                 : S_HDMV/PGS
  223. Codec ID/Info                            : Picture based subtitle format used on BDs/HD-DVDs
  224. Duration                                 : 5 s 422 ms
  225. Bit rate                                 : 17.1 kb/s
  226. Count of elements                        : 2
  227. Stream size                              : 11.3 KiB (0%)
  228. Title                                    : Spanish-FORCED-PGS
  229. Language                                 : Spanish
  230. Default                                  : No
  231. Forced                                   : No

  232. Menu
  233. 00:00:00.000                             : en:Chapter 01
  234. 00:04:50.498                             : en:Chapter 02
  235. 00:10:51.067                             : en:Chapter 03
  236. 00:17:47.691                             : en:Chapter 04
  237. 00:23:53.014                             : en:Chapter 05
  238. 00:30:00.131                             : en:Chapter 06
  239. 00:33:05.066                             : en:Chapter 07
  240. 00:37:09.310                             : en:Chapter 08
  241. 00:43:42.911                             : en:Chapter 09
  242. 00:50:47.335                             : en:Chapter 10
  243. 00:55:02.716                             : en:Chapter 11
  244. 00:59:48.459                             : en:Chapter 12
  245. 01:06:27.233                             : en:Chapter 13
  246. 01:14:32.092                             : en:Chapter 14
  247. 01:18:26.410                             : en:Chapter 15
  248. 01:23:07.899                             : en:Chapter 16
  249. 01:28:04.654                             : en:Chapter 17
  250. 01:33:10.876                             : en:Chapter 18
  251. 01:37:13.744                             : en:Chapter 19
  252. 01:44:39.189                             : en:Chapter 20
  253. 01:47:47.335                             : en:Chapter 21
复制代码

狮子王/狮子王真人版 The.Lion.King.2019.1080p.3D.BluRay.Half-OU.x264.DTS-HD.MA.7.1-FGT 20.39GB-2.png 狮子王/狮子王真人版 The.Lion.King.2019.1080p.3D.BluRay.Half-OU.x264.DTS-HD.MA.7.1-FGT 20.39GB-3.png 狮子王/狮子王真人版 The.Lion.King.2019.1080p.3D.BluRay.Half-OU.x264.DTS-HD.MA.7.1-FGT 20.39GB-4.png







本帖隐藏的下载地址需要VIP会员才可阅读,您需要升级才可阅读,点击这里升级VIP
VIP会员免费任意下载本站所有资源!---点击开通
回复

使用道具 举报

懒得打字嘛,点击右侧快捷回复 【右侧内容,后台自定义】
您需要登录后才可以回帖 登录 | 立即注册

本版积分规则

QQ|Archiver|手机版|小黑屋| 中国高清网 |网站地图 

GMT+8, 2019-11-15 21:21 , Processed in 0.263599 second(s), 37 queries .

Powered by HDchina X3.4

Copyright 2017-2019©HDchina.All right reserved

返回顶部 联系我们