查看: 39|回复: 1

[剧情片] 比利小子与吸血鬼 Billy.the.Kid.vs.Dracula.1966.1080p.BluRay.x264.DTS-FGT 6.76GB

[复制链接]

 成长值: 3210

级别:资源管理组

注册时间
2017-10-20
最后登录
2019-11-20
听众
1
收听
0
主题
87221
蓝光币
63034 枚
贡献
11580 点
发表于 2019-11-7 22:48:56 | 显示全部楼层 |阅读模式
比利小子与吸血鬼 Billy.the.Kid.vs.Dracula.1966.1080p.BluRay.x264.DTS-FGT 6.76GB-1.png

译  名 比利小子与吸血鬼
片  名 Billy the Kid versus Dracula
年  代 1966
产  地 美国
类  别 剧情 / 行动 / 可骇 / 西部
语  言 英语
上映日期 1966
IMDb评分  3.7/10 from 1433 users
IMDb链接  https://www.imdb.com/title/tt0060168
豆瓣评分 0/10 from 0 users
豆瓣链接 https://movie.douban.com/subject/2237890/
片  长 73 分钟
导  演 威廉·博丁 William Beaudine
编  剧 Carl K. Hittleman
主  演 约翰·卡拉丁 John Carradine
       小哈里·凯瑞 Harry Carey Jr.


标  签 美国电影 | 美国 | 可骇 | B级 | 西部 | 吸血鬼 | 行动 | 剧情

简  介  

  Dracula goes to the Old West and while riding on a stage learns that one of the passengers is on her way to meet her daughter at her ranch. Accompanying her is her brother who hasn't seen her daughter. Dracula the arranges for some Indians to attack the stage coach and kill everybody. He then assumes her brother's identity and plots to make her daughter his mate. When he shows up he meets the girl who introduces him to her fiancé, William Bonney aka billy the kid, who has reformed. When a European family who had earlier encountered Dracula decides to protect the girl and warns Billy of the danger. Billy then wonders if the man is her uncle. And it doesn't help that no one believes him and the ranch's former foreman is doing what he can to discredit Billy.
  1. Video
  2. ID                                       : 1
  3. Format                                   : AVC
  4. Format/Info                              : Advanced Video Codec
  5. Format profile                           : High@L4
  6. Format settings                          : CABAC / 4 Ref Frames
  7. Format settings, CABAC                   : Yes
  8. Format settings, Reference frames        : 4 frames
  9. Codec ID                                 : V_MPEG4/ISO/AVC
  10. Duration                                 : 1 h 14 min
  11. Bit rate                                 : 11.5 Mb/s
  12. Width                                    : 1 920 pixels
  13. Height                                   : 1 036 pixels
  14. Display aspect ratio                     : 1.85:1
  15. Frame rate mode                          : Constant
  16. Frame rate                               : 23.976 (24000/1001) FPS
  17. Color space                              : YUV
  18. Chroma subsampling                       : 4:2:0
  19. Bit depth                                : 8 bits
  20. Scan type                                : Progressive
  21. Bits/(Pixel*Frame)                       : 0.241
  22. Stream size                              : 5.97 GiB (88%)
  23. Title                                    : Billy.the.Kid.vs.Dracula.1966.1080p.BluRay.x264.DTS-FGT
  24. Writing library                          : x264 core 148 r2795M aaa9aa8
  25. Encoding settings                        : cabac=1 / ref=4 / deblock=1:-2:-2 / analyse=0x3:0x113 / me=umh / subme=9 / psy=1 / psy_rd=1.00:0.15 / mixed_ref=1 / me_range=16 / chroma_me=1 / trellis=2 / 8x8dct=1 / cqm=0 / deadzone=21,11 / fast_pskip=1 / chroma_qp_offset=-3 / threads=48 / lookahead_threads=3 / sliced_threads=0 / nr=0 / decimate=1 / interlaced=0 / bluray_compat=0 / constrained_intra=0 / bframes=3 / b_pyramid=2 / b_adapt=1 / b_bias=0 / direct=3 / weightb=1 / open_gop=0 / weightp=2 / keyint=250 / keyint_min=25 / scenecut=40 / intra_refresh=0 / rc_lookahead=50 / rc=2pass / mbtree=1 / bitrate=11500 / ratetol=1.0 / qcomp=0.60 / qpmin=0 / qpmax=69 / qpstep=4 / cplxblur=20.0 / qblur=0.5 / vbv_maxrate=31250 / vbv_bufsize=31250 / nal_hrd=none / filler=0 / ip_ratio=1.40 / aq=1:1.00
  26. Language                                 : English
  27. Default                                  : Yes
  28. Forced                                   : No

  29. Audio
  30. ID                                       : 2
  31. Format                                   : DTS
  32. Format/Info                              : Digital Theater Systems
  33. Codec ID                                 : A_DTS
  34. Duration                                 : 1 h 14 min
  35. Bit rate mode                            : Constant
  36. Bit rate                                 : 1 509 kb/s
  37. Channel(s)                               : 2 channels
  38. Channel layout                           : L R
  39. Sampling rate                            : 48.0 kHz
  40. Frame rate                               : 93.750 FPS (512 SPF)
  41. Bit depth                                : 16 bits
  42. Compression mode                         : Lossy
  43. Stream size                              : 803 MiB (12%)
  44. Title                                    : Billy.the.Kid.vs.Dracula.1966.1080p.BluRay.x264.DTS-FGT
  45. Language                                 : English
  46. Default                                  : Yes
  47. Forced                                   : No

  48. Text
  49. ID                                       : 3
  50. Format                                   : UTF-8
  51. Codec ID                                 : S_TEXT/UTF8
  52. Codec ID/Info                            : UTF-8 Plain Text
  53. Duration                                 : 1 h 13 min
  54. Bit rate                                 : 52 b/s
  55. Count of elements                        : 817
  56. Stream size                              : 28.1 KiB (0%)
  57. Language                                 : English
  58. Default                                  : Yes
  59. Forced                                   : No

  60. Menu
  61. 00:00:00.000                             : en:Chapter 00
  62. 00:10:21.287                             : en:Chapter 01
  63. 00:22:48.825                             : en:Chapter 02
  64. 00:31:20.587                             : en:Chapter 03
  65. 00:40:01.482                             : en:Chapter 04
  66. 00:50:05.002                             : en:Chapter 05
  67. 00:59:09.754                             : en:Chapter 06
  68. 01:06:56.470                             : en:Chapter 07
复制代码

比利小子与吸血鬼 Billy.the.Kid.vs.Dracula.1966.1080p.BluRay.x264.DTS-FGT 6.76GB-2.png 224757qz5qeq1vdot0299q.png 比利小子与吸血鬼 Billy.the.Kid.vs.Dracula.1966.1080p.BluRay.x264.DTS-FGT 6.76GB-4.png







VIP会员免费任意下载本站所有资源!---点击开通
回复

使用道具 举报

级别:一举成名 Lv.7

注册时间
2019-4-24
最后登录
2019-11-19
听众
13
收听
0
主题
0
蓝光币
197 枚
贡献
0 点
发表于 2019-11-8 11:04:59 | 显示全部楼层
楼主发贴辛苦了,谢谢楼主分享!我觉得中国高清电影网是注册对了!
VIP会员免费任意下载本站所有资源!---点击开通
回复

使用道具 举报

懒得打字嘛,点击右侧快捷回复 【右侧内容,后台自定义】
您需要登录后才可以回帖 登录 | 立即注册

本版积分规则

QQ|Archiver|手机版|小黑屋| 中国高清网 |网站地图

GMT+8, 2019-11-20 10:30 , Processed in 0.499259 second(s), 37 queries .

Powered by HDchina X3.4

Copyright 2017-2019©HDchina.All right reserved

返回顶部 联系我们