查看: 71|回复: 4

[剧情片] 十一天十一夜1 Eleven.Days.Eleven.Nights.1987.ITALIAN.1080p.BluRay.x264.DTS-FGT 9.32GB

[复制链接]

 成长值: 3140

级别:资源管理组

注册时间
2017-10-20
最后登录
2019-11-11
听众
1
收听
0
主题
86761
蓝光币
61615 枚
贡献
11119 点
发表于 6 天前 | 显示全部楼层 |阅读模式
十一天十一夜1 Eleven.Days.Eleven.Nights.1987.ITALIAN.1080p.BluRay.x264.DTS-FGT 9.32GB-1.png

译  名 十一天十一夜1 / 11 Days 11 Nights: Part 1 - Fantasy Becomes Reality / 11日11夜1
片  名 11 giorni, 11 notti
年  代 1987
产  地 意大利
类  别 剧情 / 恋爱
语  言 意大利语
上映日期 1987-03-27(意大利)
IMDb评分  3.9/10 from 510 users
IMDb链接  https://www.imdb.com/title/tt0091002
豆瓣评分 5.7/10 from 748 users
豆瓣链接 https://movie.douban.com/subject/1461243/
片  长 101分钟
导  演 乔·达马托 Joe D'Amato
编  剧 Rossella Drudi / 克劳迪奥·弗拉加索 Claudio Fragasso
主  演 Jessica Moore
       Joshua McDonald
       Mary Sellers
       Tom Mojack
       David Brandon
       Richard Barkeley
       芭芭拉·库皮斯蒂 Barbara Cupisti
       Don Fiore
       Robert Gligorov
       Sheila Goldberg
       米基·诺克斯 Mickey Knox
       Giovanni Lombardo Radice
       劳拉·贾姆瑟 Laura Gemser


标  签 情色 | 11日11夜 | 情色片 | 意大利 | 想看看 | 恋爱 | 意大利电影 | 电影

简  介  

  还有十一天,迈克尔(Joshua McDonald 饰)就要和自己深爱的未婚妻步入婚姻的殿堂了,就在这个节骨眼上,迈克尔碰见了名为萨拉(Jessica Moore 饰)的奥秘女子。萨拉具有姣好的面孔,劲爆的身段,引诱的眼神,不管从哪一方面来说,她都是那种汉子极为渴望获得了绝世美男,但是,让迈克尔没有想到的是,萨拉居然自意向他投怀送抱,面临如此引诱,纵使婚期快要,迈克尔也再不能自持。
  整整十一天,十一夜,迈克尔生活在萨拉所修建的灵与肉的天下里没法自拔,即使未婚妻已经发现了他的不忠,他也没法分开萨拉温香软玉般的怀抱,当第十一天竣事之时,他和萨拉的关系会走向何处呢?
  1. Video
  2. ID                                       : 1
  3. Format                                   : AVC
  4. Format/Info                              : Advanced Video Codec
  5. Format profile                           : High@L4
  6. Format settings                          : CABAC / 4 Ref Frames
  7. Format settings, CABAC                   : Yes
  8. Format settings, Reference frames        : 4 frames
  9. Codec ID                                 : V_MPEG4/ISO/AVC
  10. Duration                                 : 1 h 31 min
  11. Bit rate                                 : 11.5 Mb/s
  12. Width                                    : 1 792 pixels
  13. Height                                   : 1 080 pixels
  14. Display aspect ratio                     : 5:3
  15. Frame rate mode                          : Constant
  16. Frame rate                               : 23.976 (24000/1001) FPS
  17. Color space                              : YUV
  18. Chroma subsampling                       : 4:2:0
  19. Bit depth                                : 8 bits
  20. Scan type                                : Progressive
  21. Bits/(Pixel*Frame)                       : 0.248
  22. Stream size                              : 7.38 GiB (79%)
  23. Title                                    : Eleven.Days.Eleven.Nights.1987.ITALIAN.1080p.BluRay.x264.DTS-FGT
  24. Writing library                          : x264 core 148 r2748 97eaef2
  25. Encoding settings                        : cabac=1 / ref=4 / deblock=1:-2:-2 / analyse=0x3:0x113 / me=umh / subme=9 / psy=1 / psy_rd=1.00:0.15 / mixed_ref=1 / me_range=16 / chroma_me=1 / trellis=2 / 8x8dct=1 / cqm=0 / deadzone=21,11 / fast_pskip=1 / chroma_qp_offset=-3 / threads=24 / lookahead_threads=3 / sliced_threads=0 / nr=0 / decimate=1 / interlaced=0 / bluray_compat=0 / constrained_intra=0 / bframes=3 / b_pyramid=2 / b_adapt=1 / b_bias=0 / direct=3 / weightb=1 / open_gop=0 / weightp=2 / keyint=250 / keyint_min=25 / scenecut=40 / intra_refresh=0 / rc_lookahead=50 / rc=2pass / mbtree=1 / bitrate=11500 / ratetol=1.0 / qcomp=0.60 / qpmin=0 / qpmax=69 / qpstep=4 / cplxblur=20.0 / qblur=0.5 / vbv_maxrate=31250 / vbv_bufsize=31250 / nal_hrd=none / filler=0 / ip_ratio=1.40 / aq=1:1.00
  26. Language                                 : English
  27. Default                                  : Yes
  28. Forced                                   : No

  29. Audio #1
  30. ID                                       : 2
  31. Format                                   : DTS
  32. Format/Info                              : Digital Theater Systems
  33. Codec ID                                 : A_DTS
  34. Duration                                 : 1 h 31 min
  35. Bit rate mode                            : Constant
  36. Bit rate                                 : 1 509 kb/s
  37. Channel(s)                               : 2 channels
  38. Channel layout                           : L R
  39. Sampling rate                            : 48.0 kHz
  40. Frame rate                               : 93.750 FPS (512 SPF)
  41. Bit depth                                : 16 bits
  42. Compression mode                         : Lossy
  43. Stream size                              : 992 MiB (10%)
  44. Title                                    : Eleven.Days.Eleven.Nights.1987.ITALIAN.1080p.BluRay.x264.DTS-FGT
  45. Language                                 : Italian
  46. Default                                  : Yes
  47. Forced                                   : No

  48. Audio #2
  49. ID                                       : 3
  50. Format                                   : DTS
  51. Format/Info                              : Digital Theater Systems
  52. Codec ID                                 : A_DTS
  53. Duration                                 : 1 h 31 min
  54. Bit rate mode                            : Constant
  55. Bit rate                                 : 1 509 kb/s
  56. Channel(s)                               : 2 channels
  57. Channel layout                           : L R
  58. Sampling rate                            : 48.0 kHz
  59. Frame rate                               : 93.750 FPS (512 SPF)
  60. Bit depth                                : 16 bits
  61. Compression mode                         : Lossy
  62. Stream size                              : 992 MiB (10%)
  63. Title                                    : Eleven.Days.Eleven.Nights.1987.ITALIAN.1080p.BluRay.x264.DTS-FGT
  64. Language                                 : English
  65. Default                                  : No
  66. Forced                                   : No

  67. Text
  68. ID                                       : 4
  69. Format                                   : UTF-8
  70. Codec ID                                 : S_TEXT/UTF8
  71. Codec ID/Info                            : UTF-8 Plain Text
  72. Duration                                 : 1 h 26 min
  73. Bit rate                                 : 41 b/s
  74. Count of elements                        : 1051
  75. Stream size                              : 26.2 KiB (0%)
  76. Language                                 : English
  77. Default                                  : Yes
  78. Forced                                   : No

  79. Menu
  80. 00:00:00.000                             : en:Chapter 01
  81. 00:02:57.218                             : en:Chapter 02
  82. 00:08:33.721                             : en:Chapter 03
  83. 00:20:05.537                             : en:Chapter 04
  84. 00:29:56.127                             : en:Chapter 05
  85. 00:41:46.295                             : en:Chapter 06
  86. 00:52:27.144                             : en:Chapter 07
  87. 01:02:44.177                             : en:Chapter 08
  88. 01:08:41.367                             : en:Chapter 09
  89. 01:13:47.548                             : en:Chapter 10
  90. 01:20:00.921                             : en:Chapter 11
  91. 01:26:42.947                             : en:Chapter 12
  92. 01:31:45.833                             : en:Chapter 13
复制代码

十一天十一夜1 Eleven.Days.Eleven.Nights.1987.ITALIAN.1080p.BluRay.x264.DTS-FGT 9.32GB-2.png 十一天十一夜1 Eleven.Days.Eleven.Nights.1987.ITALIAN.1080p.BluRay.x264.DTS-FGT 9.32GB-3.png 十一天十一夜1 Eleven.Days.Eleven.Nights.1987.ITALIAN.1080p.BluRay.x264.DTS-FGT 9.32GB-4.png







VIP会员免费任意下载本站所有资源!---点击开通
回复

使用道具 举报

级别:一举成名 Lv.7

注册时间
2019-4-24
最后登录
2019-11-13
听众
13
收听
0
主题
0
蓝光币
194 枚
贡献
0 点
发表于 5 天前 | 显示全部楼层
楼主发贴辛苦了,谢谢楼主分享!我觉得中国高清电影网是注册对了!
VIP会员免费任意下载本站所有资源!---点击开通
回复

使用道具 举报

 成长值: 1750

级别:尊贵的会员

注册时间
2018-8-20
最后登录
2019-11-13
听众
17
收听
0
主题
0
蓝光币
1311 枚
贡献
0 点
发表于 4 天前 | 显示全部楼层
又一部意大利激情作品。
VIP会员免费任意下载本站所有资源!---点击开通
回复

使用道具 举报

级别:专业龙套 Lv.4

注册时间
2019-1-22
最后登录
2019-11-10
听众
13
收听
0
主题
0
蓝光币
134 枚
贡献
0 点
发表于 3 天前 | 显示全部楼层
楼主发贴辛苦了,谢谢楼主分享!我觉得中国高清电影网是注册对了!
VIP会员免费任意下载本站所有资源!---点击开通
回复

使用道具 举报

级别:普通观众 Lv.2

注册时间
2019-11-4
最后登录
2019-11-13
听众
0
收听
0
主题
0
蓝光币
10 枚
贡献
0 点
发表于 3 天前 | 显示全部楼层
楼主发贴辛苦了,谢谢楼主分享!我觉得中国高清电影网是注册对了!
VIP会员免费任意下载本站所有资源!---点击开通
回复

使用道具 举报

懒得打字嘛,点击右侧快捷回复 【右侧内容,后台自定义】
您需要登录后才可以回帖 登录 | 立即注册

本版积分规则

QQ|Archiver|手机版|小黑屋| 中国高清网 |网站地图 

GMT+8, 2019-11-13 17:41 , Processed in 0.259828 second(s), 37 queries .

Powered by HDchina X3.4

Copyright 2017-2019©HDchina.All right reserved

返回顶部 联系我们