查看: 54|回复: 2

[动画片] 宠物小精灵:裂空的访问者/宠物小精灵: 裂空的访问者 Pokemon.The.Movie.Destiny.Deoxys.2004.JAPANESE.1080p.BluRay.x264.DTS-FGT 9.35GB

[复制链接]

 成长值: 3160

级别:资源管理组

注册时间
2017-10-20
最后登录
2019-11-11
听众
1
收听
0
主题
86761
蓝光币
61817 枚
贡献
11119 点
发表于 2019-11-7 22:33:21 | 显示全部楼层 |阅读模式
宠物小精灵:裂空的拜候者/宠物小精灵: 裂空的拜候者 Pokemon.The.Movie.Destiny.Deoxys.2004.JAPANESE.1080p.BluRay.x264.DTS-FGT 9.35GB-1.png

译  名 宠物小精灵:裂空的拜候者 / 宠物小精灵: 裂空的拜候者
片  名 劇場版ポケットモンスター アドバンスジェネレーション 裂空の訪問者 デオキシス
年  代 2004
产  地 日本
类  别 科幻 / 动画 / 悬疑 / 冒险
语  言 日语
上映日期 2004-07-17(日本)
IMDb评分  6.1/10 from 2947 users
IMDb链接  https://www.imdb.com/title/tt0435286
豆瓣评分 7.6/10 from 2812 users
豆瓣链接 https://movie.douban.com/subject/2119796/
片  长 98 分钟
导  演 汤山邦彦 Kunihiko Yuyama
编  剧 田尻智 Satoshi Tajiri / 增田顺一 / 杉森健 / 园田英树 Hideki Sonoda
主  演 松本梨香 Rica Matsumoto
       大谷育江 Ikue Ootani
       日高法子 Noriko Hidaka
       上田祐司 Y?ji Ueda
       川菜翠 Midori Kawana
       山田恭子 Kyoko Yamada
       西村千奈美 Chinami Nishimura
       山本圭子 Keiko Yamamoto
       野岛健儿 Kenji Nojima
       肥后诚 Makoto Higo
       山本麻里安 Maria Yamamoto
       水树奈奈 Nana Mizuki
       千叶进步 Susumu Chiba
       小西克幸 Katsuyuki Konishi
       川濑晶子 Kawase Akiko
       比嘉久美子 Kumiko Higa
       伊东美弥子 Itou Miyako
       佐藤智惠 Satou Chie
       山口隆行 Yamaguchi Takayuki
       加藤木贤志
       高桥良吉 Takahashi Ryoukichi
       吉原夏希 Natsuki Yoshihara
       白石凉子 Ryoko Shiraishi
       林原惠美 Megumi Hayashibara
       三木真一郎 Shinichir? Miki
       犬山犬子 Inuko Inuyama
       石冢运升 Unsh? Ishizuka
       上原多香子 Takako Uehara
       山寺宏一 K?ichi Yamadera


标  签 动画 | 戏院版 | 日本 | 宠物小精灵 | Pokémon | 日本动画 | 口袋魔鬼 | 宠物小精灵:

简  介  

  在代欧奇希斯(以下代欧)酿成防御型态与裂空坐延续苦战的同时,拉鲁斯市广播系统昭告大师告急出亡。市民们听到广播后便惊慌分散。代欧此时又酿成进犯型态,并对裂空坐释出进犯。广播延续呼吁公众这并非练习,而小超则在逃窜中的人群傍边,大惑不解为何代欧还在世。当小超在出亡时碰见一只难过的正电拍拍。小超一看到奇异宝贝顿时吓坏了,但听到它的求救声便镇静下来。本来它的同伴负电拍拍被陷进渣滓桶里没法摆脱,小超决议帮手。当他翻开渣滓桶盖时,忽然负电拍拍火烧眉毛地冲出来!小超又吓坏了,不由自立地想要逃离现场,这时忽然小卡比兽也从渣滓桶冒出来!不幸的小超就这么昏曩昔了。以后小智赶来发现昏迷不醒的小超,便用尽方式想把小超叫醒。小超苏醒后却不兴奋地嫌小智多管闲事(布景的小卡比兽则捡着渣滓吃)。此时小遥、小刚、正太、阿隆、一位女性和两位双胞胎女生也赶到,而小智正敦促小超赶紧逃难。但小超还来不及行动,忽然一束死光射到他们四周的空中,把大师吓得六神无主!大师惊魂甫按时,小超奉告有个地方可以躲难,一行人便跟了曩昔。
  小超带大师来到他之前往的玻璃温室动物园。当小超对动物园的进口读卡机刷卡时,发现读卡机故障,门打不开了。正太自告奋勇地用双手奋利巴门扳开。当大师为正太喝彩时,阿隆盯着小智看,藐视地说小智怎样还待在拉鲁斯市里,以为他惨败后早该惭愧地回故乡了。小智生气地说要再跟他比一场,小遥只得劝架说现在不是机会,但这时一旁的两位双胞胎女生加油添醋地说她们的哥哥绝不会输给小智。小智诘责她们是谁,而那位女性诠释那两位小女生是正太的妹妹们,オオドリ(暂:大鸟)和キャサリン(暂:凯萨琳)。女性则自我先容是ヒトミ(暂:小瞳)。接下来我们都晓得小刚会做出什么反应啦,而小胜也立即拉走小刚的耳朵。
  以后阿隆问大师该若何在动物园里打发时候,而小瞳则拿出笔记型电脑起头查询那只DNA奇异宝贝的材料。但出乎她料想之外并没有任何代欧的材料,正太则敦促她继续尝试(布景的小卡比兽正在睡觉)。此时小智询问一脸忧伤的小超怎样了,而在其他人的关切下,小超起头诉说他四年前的履历。小超瞻仰着还在苦战的两只奇异宝贝,在大师(除了小卡比兽)的全神灌输下,说代欧是从宇宙来的。四年前一颗陨石击中地表,而从陨石中,迸出那只被伦多博士命名为“代欧奇希斯”的奇异宝贝。由于它加害了裂空坐的大气层范畴,因而大苦战起头。裂空坐的破坏死光以后准准地轰碎代欧奇希斯,成为零星碎片。阿隆对小超的故事思疑并嗤之以鼻,而正太也叫小超别把他们当小孩骗,并反问为何代欧现在还在世?小超只能回答他不晓得。
  此时在温室动物园上空,代欧起头复制自己的“影子代欧”兼顾。兼顾群一看到四周潜藏的惊慌市民,居然就起头冲下来,掳走市民到不著名的地方去了!
  在动物园中小智他们仍藉着小瞳的电脑收听广播。记者播报现在拉鲁斯市被?\罩在代欧所构成的通明罩里没法对外通行,而且影子代欧们群仍不停地掳走人们。小瞳关掉电脑,正太则担忧被困在这里。在窗外的影子代欧群不时地逼近,把大鸟和凯萨琳吓哭了。忽然一只兼顾打破玻璃屋顶进来,小超看到赶紧叫大师赶紧跑,但影子代欧却已经冲下来了!正太叫出水箭龟用高压帮浦,却对影子代欧无效。就在正太纳 闷为何无效的时辰,从背后另一只影子代欧狙击正太和水箭龟,从屋顶破洞把他们掳走了!阿隆生气地叫出火焰鸡使出火焰飞踢,小智叫皮卡丘用十万伏特,小瞳叫出巨金怪用彗星拳,双胞胎叫出溜溜糖球和雨翅蛾用泡沫光芒。这些奇异宝贝在对于影子代欧群时,小智叫大师赶紧逃走,阿隆则问小超能否晓得告急出口在哪。忽然小刚发现他的宝贝球没法翻开了,其他人也惊觉他们的也不可。
  影子代欧又杀出重围逼近小超,害他只好继续逃躲。阿隆叫火焰鸡进犯影子代欧,并叫大师别管他而先行逃离。阿隆请小遥照顾好他的两个妹妹,但小遥不想丢下阿隆不管。此时小朴直焦急地想叫醒小卡比兽(居然到这节骨眼还在睡),而火焰鸡延续使出上勾拳迟延时候,让小遥她们偶然候跑到出口。小遥叫正在战役的小智他们赶紧跑过来,但小智他们还是吩咐小遥她们先行分开。忽然,小卡比兽打了大大的欠伸,同时嘴里冒出白光照耀全部温室,居然把一切影子代欧给光分化了!小智他们便乘隙跑向出口分开。
  此时在伦多博士的研讨尝试室里,伦多博士昏迷不醒地躺平。助手春野手持电击棒,嘴里假惺惺地感激伦多博士的尽力带给他很多的方便,无私地盯着水晶球体,空想自己能若何地从中获得暴利和势力并掀起奇异宝贝界的大反动。这时忽然有人拍门把春野吓了一跳。本来里面是小超和一行人,小超则对一行人诠释尝试室是建造在动物园的底下。春野这时开门让大师进去,但尝试室里都不见伦多博士的人影。小超问春野父亲的着落,春野骗说伦多博士已经出门找他了。小超担忧里面那末危险爸爸会不会有事,春野则叫小超不要穷担忧。小智筹算进来寻觅博士,但阿隆则叫小智不要贸然行动形成大师的担忧。一群人便待在一路等伦多博士返来。
  已经早晨了,却仍不见伦多博士的踪影。大鸟和凯萨琳一向喊累喊饿,阿隆只好哄她们恬静再等一下。此时小卡比兽手拿着三明治走向大鸟和凯萨琳,那对双胞胎以为这只好心的奇异宝贝带给她们食品,却看到小卡比兽当面把三明治吞掉了!两个女生顿时大哭,小智则决议要出外找食品。阿隆还是提醒小智里面的危险,但此次小智决然地跑进来,阿隆和其他人只好尾随。
  在外头可看到影子代欧四周飘移,如同在巡查一般。小智他们放低姿势免得被发现,并一路计画找寻食品高文战。当影子代欧临时分开后大伙便分头行进,而小智、皮卡丘和小刚找到了一台热狗销售机,但电源切断了。小智叫皮卡丘使出十万伏特,那台电动销售机便一边启动一边播放音乐,热狗不停地掉出来,小刚他们就尽能够地抓了一大把。忽然,小刚把小智压在地上,并叫他不要作声,本来头顶上飘着一群影子代欧。小智他们躲在销售机前面,但机械的音乐却还在播放!影子代欧听到音乐后往销售机逼近,小智他们则吓得以为死定了。忽然小超和正、负电拍拍从另一头走出来,完全不晓得影子代欧的存在。兼顾们立即冲向小超,但正、负电拍拍联适用了电击绝招庇护小超。这时,一只影子代欧快速攫住负电拍拍和小超!小智便奋掉臂身地捉住那只兼顾并猛咬它的一只手臂,小超便摆脱成功了。小智问小超能否平安无事,皮卡丘则延续进犯其他兼顾。但为数实在太多了,小智叫大师赶紧逃离,但小超仍担忧负电拍拍的平安。小刚呼吁他们本身的平安更重要,因而他们便逃离现场了。他们来到一间开着窗户的修建物,因而便爬进窗户潜藏。影子代欧群飞擦过来,幸亏没有发现小智他们的踪影。在稍微喘息后,小超发现正电拍拍为它的同伴难过,便试着抚摩抚慰正电拍拍,却由于年少创伤的身材排挤反应让他没法这么做,只好对正电拍拍道歉。此时皮卡丘在这栋修建里找到一瓶水,让大师心情好了起来。
  以后大师费了一番气力回到尝试室,并一面吃着热狗一面称赞多好吃。此时阿隆指着小瞳的电脑广播,告诉小智那些被影子代欧掳走的人们(包括火箭队…和可达鸭)都被带到不著名的地方。小刚对阿谁特定地方感应希奇,这时忽然听到伦多博士的声音!本来他从柜子里昏沈地爬出来,明显不晓得自己被电昏的工作。博士说代欧正在找它的朋友,并问大师春野在那里。大师说春野进来了,博士环视四周发现水晶球体不见了。小超问父亲那是什么,伦多博士则回答,那球体是代欧奇希斯的另一部兼顾体。以后博士流露本来那球体就是让代欧再生、复制的关键!小胜奉告春野带着球体分开了,阿隆则猜测本来代欧就是为了找回这球体才返回进犯大师的。
  忽然,之前在动物园里的奥秘光芒又出现在小超眼前和他“说话”。小超向大师先容这是他在动物园熟悉的朋友,以后那光芒构成另一只代欧奇希斯的身影。小超告诉父亲也许水晶球体还有朝气,便冲进来寻觅,前面随着其他人。
  此时在拉鲁斯市的偏僻处,春野带着一只箱子疯狂地跑。忽然从两只神宝的战役中射来一束死光,在四周的空中爆炸让春野落空重心并跌倒箱子滚出水晶球体。爆炸激发的碎石起头落向春野,而这伦多博士的助手就被埋葬了。在天空中的两只奇异宝贝也没闲着,裂空坐起头用身材紧缠代欧,让代欧没法转动。
  小超背面随着其他人,藉由阿谁光芒的率领下继续向前跑。小超现在领会为何代欧奇希斯不想要孤独,并感同身受地决议要成为代欧的朋友。其他人也决议帮助小超停息裂空坐与代欧之争。此时春野摆脱瓦砾堆,一边诅咒水晶球体带来他的麻烦。春野这时困惑地找寻水晶球体的着落,但立即信誓旦旦地自傲一定能很快找到。他拿出遥控器按了钮,激起不远处的水晶球体射出强光。在天空中,被裂空坐缠住的代欧往下看到晶体,脸上顿时暴露愤慨的脸色。回到地上,指导小超的光芒正往水晶球体发出的强光接近,小智则兴高采烈地说找到了。阿隆感觉希奇为何水晶球体味发出强光,大师便蹲下来端详。此时春野出现说水晶球体是他的,并伸手预备拿的时辰,一群影子代欧过来把春野包围住了。阿隆以为它们也是要来拿水晶球体,此时小智决议,此主要帮助春野…!!
  1. Video
  2. ID                                       : 1
  3. Format                                   : AVC
  4. Format/Info                              : Advanced Video Codec
  5. Format profile                           : High@L4
  6. Format settings                          : CABAC / 4 Ref Frames
  7. Format settings, CABAC                   : Yes
  8. Format settings, Reference frames        : 4 frames
  9. Codec ID                                 : V_MPEG4/ISO/AVC
  10. Duration                                 : 1 h 39 min
  11. Bit rate                                 : 11.5 Mb/s
  12. Width                                    : 1 920 pixels
  13. Height                                   : 1 080 pixels
  14. Display aspect ratio                     : 16:9
  15. Frame rate mode                          : Constant
  16. Frame rate                               : 23.976 (24000/1001) FPS
  17. Color space                              : YUV
  18. Chroma subsampling                       : 4:2:0
  19. Bit depth                                : 8 bits
  20. Scan type                                : Progressive
  21. Bits/(Pixel*Frame)                       : 0.231
  22. Stream size                              : 7.99 GiB (85%)
  23. Title                                    : Pokemon.Movie.07.Destiny.Deoxys.2004.JAPANESE.1080p.BluRay.x264.DTS-FGT
  24. Writing library                          : x264 core 148 r2748 97eaef2
  25. Encoding settings                        : cabac=1 / ref=4 / deblock=1:1:1 / analyse=0x3:0x113 / me=umh / subme=8 / psy=1 / psy_rd=0.50:0.00 / mixed_ref=1 / me_range=32 / chroma_me=1 / trellis=2 / 8x8dct=1 / cqm=0 / deadzone=21,11 / fast_pskip=1 / chroma_qp_offset=-2 / threads=34 / lookahead_threads=3 / sliced_threads=0 / nr=0 / decimate=1 / interlaced=0 / bluray_compat=0 / constrained_intra=0 / bframes=3 / b_pyramid=2 / b_adapt=1 / b_bias=0 / direct=3 / weightb=1 / open_gop=0 / weightp=2 / keyint=240 / keyint_min=24 / scenecut=40 / intra_refresh=0 / rc_lookahead=50 / rc=2pass / mbtree=1 / bitrate=11500 / ratetol=1.0 / qcomp=0.60 / qpmin=0 / qpmax=69 / qpstep=4 / cplxblur=20.0 / qblur=0.5 / vbv_maxrate=31250 / vbv_bufsize=31250 / nal_hrd=none / filler=0 / ip_ratio=1.40 / aq=3:0.60
  26. Language                                 : Japanese
  27. Default                                  : Yes
  28. Forced                                   : No

  29. Audio #1
  30. ID                                       : 2
  31. Format                                   : DTS
  32. Format/Info                              : Digital Theater Systems
  33. Codec ID                                 : A_DTS
  34. Duration                                 : 1 h 39 min
  35. Bit rate mode                            : Constant
  36. Bit rate                                 : 1 509 kb/s
  37. Channel(s)                               : 6 channels
  38. Channel layout                           : C L R Ls Rs LFE
  39. Sampling rate                            : 48.0 kHz
  40. Frame rate                               : 93.750 FPS (512 SPF)
  41. Bit depth                                : 16 bits
  42. Compression mode                         : Lossy
  43. Stream size                              : 1.05 GiB (11%)
  44. Title                                    : Pokemon.Movie.07.Destiny.Deoxys.2004.JAPANESE.1080p.BluRay.x264.DTS-FGT
  45. Language                                 : Japanese
  46. Default                                  : Yes
  47. Forced                                   : No

  48. Audio #2
  49. ID                                       : 3
  50. Format                                   : AC-3
  51. Format/Info                              : Audio Coding 3
  52. Commercial name                          : Dolby Digital
  53. Codec ID                                 : A_AC3
  54. Duration                                 : 1 h 38 min
  55. Bit rate mode                            : Constant
  56. Bit rate                                 : 448 kb/s
  57. Channel(s)                               : 6 channels
  58. Channel layout                           : L R C LFE Ls Rs
  59. Sampling rate                            : 48.0 kHz
  60. Frame rate                               : 31.250 FPS (1536 SPF)
  61. Bit depth                                : 16 bits
  62. Compression mode                         : Lossy
  63. Stream size                              : 315 MiB (3%)
  64. Title                                    : Pokemon.Movie.07.Destiny.Deoxys.2004.JAPANESE.1080p.BluRay.x264.DTS-FGT
  65. Language                                 : English
  66. Service kind                             : Complete Main
  67. Default                                  : No
  68. Forced                                   : No

  69. Text
  70. ID                                       : 4
  71. Format                                   : UTF-8
  72. Codec ID                                 : S_TEXT/UTF8
  73. Codec ID/Info                            : UTF-8 Plain Text
  74. Duration                                 : 1 h 38 min
  75. Bit rate                                 : 40 b/s
  76. Count of elements                        : 1314
  77. Stream size                              : 29.3 KiB (0%)
  78. Language                                 : English
  79. Default                                  : Yes
  80. Forced                                   : No

  81. Menu
  82. 00:00:00.000                             : en:00:00:00.000
  83. 00:04:22.596                             : en:00:04:22.596
  84. 00:08:08.113                             : en:00:08:08.113
  85. 00:12:37.882                             : en:00:12:37.882
  86. 00:15:18.543                             : en:00:15:18.543
  87. 00:20:42.783                             : en:00:20:42.783
  88. 00:24:29.968                             : en:00:24:29.968
  89. 00:27:03.997                             : en:00:27:03.997
  90. 00:32:32.325                             : en:00:32:32.325
  91. 00:37:20.155                             : en:00:37:20.155
  92. 00:41:32.073                             : en:00:41:32.073
  93. 00:44:35.298                             : en:00:44:35.298
  94. 00:48:03.130                             : en:00:48:03.130
  95. 00:52:23.057                             : en:00:52:23.057
  96. 00:56:49.781                             : en:00:56:49.781
  97. 01:02:10.518                             : en:01:02:10.518
  98. 01:04:57.060                             : en:01:04:57.060
  99. 01:07:37.553                             : en:01:07:37.553
  100. 01:11:46.052                             : en:01:11:46.052
  101. 01:17:47.413                             : en:01:17:47.413
  102. 01:21:51.615                             : en:01:21:51.615
  103. 01:25:59.237                             : en:01:25:59.237
  104. 01:29:14.099                             : en:01:29:14.099
  105. 01:32:34.716                             : en:01:32:34.716
  106. 01:38:15.681                             : en:01:38:15.681
复制代码

223206w9gxvipcaztavapj.png 宠物小精灵:裂空的拜候者/宠物小精灵: 裂空的拜候者 Pokemon.The.Movie.Destiny.Deoxys.2004.JAPANESE.1080p.BluRay.x264.DTS-FGT 9.35GB-3.png 宠物小精灵:裂空的拜候者/宠物小精灵: 裂空的拜候者 Pokemon.The.Movie.Destiny.Deoxys.2004.JAPANESE.1080p.BluRay.x264.DTS-FGT 9.35GB-4.png







VIP会员免费任意下载本站所有资源!---点击开通
回复

使用道具 举报

级别:一举成名 Lv.7

注册时间
2019-4-24
最后登录
2019-11-14
听众
13
收听
0
主题
0
蓝光币
194 枚
贡献
0 点
发表于 7 天前 | 显示全部楼层
楼主发贴辛苦了,谢谢楼主分享!我觉得中国高清电影网是注册对了!
VIP会员免费任意下载本站所有资源!---点击开通
回复

使用道具 举报

级别:初级观众 Lv.1

注册时间
2019-11-10
最后登录
2019-11-10
听众
0
收听
0
主题
0
蓝光币
3 枚
贡献
0 点
QQ
发表于 5 天前 | 显示全部楼层

既然你诚信诚意的推荐了,那我就勉为其难的看看吧!中国高清电影网不走平凡路。
VIP会员免费任意下载本站所有资源!---点击开通
回复

使用道具 举报

懒得打字嘛,点击右侧快捷回复 【右侧内容,后台自定义】
您需要登录后才可以回帖 登录 | 立即注册

本版积分规则

QQ|Archiver|手机版|小黑屋| 中国高清网 |网站地图 

GMT+8, 2019-11-15 08:13 , Processed in 0.401689 second(s), 38 queries .

Powered by HDchina X3.4

Copyright 2017-2019©HDchina.All right reserved

返回顶部 联系我们