查看: 83|回复: 2

[喜剧片] 人生得意衰尽欢 Pink.Bomb.1993.CHINESE.1080p.BluRay.x264.DTS-FGT 8.17GB

[复制链接]

 成长值: 3210

级别:资源管理组

注册时间
2017-10-20
最后登录
2019-11-20
听众
1
收听
0
主题
87221
蓝光币
63004 枚
贡献
11580 点
发表于 2019-11-7 22:31:27 | 显示全部楼层 |阅读模式
人生自得衰尽欢 Pink.Bomb.1993.CHINESE.1080p.BluRay.x264.DTS-FGT 8.17GB-1.png

译  名 人生自得衰尽欢 / Pink Bomb / 红粉兵团
片  名 人生自得衰盡歡
年  代 1993
产  地 中国香港
类  别 笑剧
语  言 粤语
上映日期 1993-03-27
IMDb评分  5.1/10 from 17 users
IMDb链接  https://www.imdb.com/title/tt0107947
豆瓣评分 6.2/10 from 517 users
豆瓣链接 https://movie.douban.com/subject/1780552/
片  长 95 分钟
导  演 赵崇基
编  剧 黄子华 Chi Wah Wong (I)
主  演 杨丽菁 Cynthia Khan
       刘青云 Ching Wan Lau
       李子雄 Waise Lee
       李丽珍 Loletta Lee
       黄子华 Chi Wah Wong (I)
       袁洁莹 Fennie Yuen
       叶蕴仪 Gloria Yip


标  签 黄子华 | 香港 | 刘青云 | 香港电影 | 笑剧 | 李丽珍 | 李子雄 | 赵崇基

简  介  

  在[日月观光社]内一个[团友谊谊会]上,看似虔敬基督的领队,实在是卧底国际刑警,他往泰国目标是以观光团领队的身份,清查一宗伪钞案。一到曼谷,他便展开观察,无法却发现伪钞团体因风声太紧,早已停止活动,茫无线索之下...... 刺激,搞鬼的故事由此展开!
  其中在戏里黄子华用超市和快餐店的称号讲的粗口顺口溜,相当搞鬼!!
  1. Video
  2. ID                                       : 1
  3. Format                                   : AVC
  4. Format/Info                              : Advanced Video Codec
  5. Format profile                           : High@L4
  6. Format settings                          : CABAC / 4 Ref Frames
  7. Format settings, CABAC                   : Yes
  8. Format settings, Reference frames        : 4 frames
  9. Codec ID                                 : V_MPEG4/ISO/AVC
  10. Duration                                 : 1 h 29 min
  11. Bit rate                                 : 11.5 Mb/s
  12. Width                                    : 1 920 pixels
  13. Height                                   : 1 080 pixels
  14. Display aspect ratio                     : 16:9
  15. Frame rate mode                          : Constant
  16. Frame rate                               : 25.000 FPS
  17. Color space                              : YUV
  18. Chroma subsampling                       : 4:2:0
  19. Bit depth                                : 8 bits
  20. Scan type                                : Progressive
  21. Bits/(Pixel*Frame)                       : 0.222
  22. Stream size                              : 7.22 GiB (88%)
  23. Title                                    : Pink.Bomb.1993.CHINESE.1080p.BluRay.x264.DTS-FGT
  24. Writing library                          : x264 core 148 r2748 97eaef2
  25. Encoding settings                        : cabac=1 / ref=4 / deblock=1:-2:-2 / analyse=0x3:0x113 / me=umh / subme=9 / psy=1 / psy_rd=1.00:0.15 / mixed_ref=1 / me_range=16 / chroma_me=1 / trellis=2 / 8x8dct=1 / cqm=0 / deadzone=21,11 / fast_pskip=1 / chroma_qp_offset=-3 / threads=24 / lookahead_threads=3 / sliced_threads=0 / nr=0 / decimate=1 / interlaced=0 / bluray_compat=0 / constrained_intra=0 / bframes=3 / b_pyramid=2 / b_adapt=1 / b_bias=0 / direct=3 / weightb=1 / open_gop=0 / weightp=2 / keyint=250 / keyint_min=25 / scenecut=40 / intra_refresh=0 / rc_lookahead=50 / rc=2pass / mbtree=1 / bitrate=11500 / ratetol=1.0 / qcomp=0.60 / qpmin=0 / qpmax=69 / qpstep=4 / cplxblur=20.0 / qblur=0.5 / vbv_maxrate=31250 / vbv_bufsize=31250 / nal_hrd=none / filler=0 / ip_ratio=1.40 / aq=1:1.00
  26. Language                                 : Chinese
  27. Default                                  : Yes
  28. Forced                                   : No

  29. Audio
  30. ID                                       : 2
  31. Format                                   : DTS
  32. Format/Info                              : Digital Theater Systems
  33. Codec ID                                 : A_DTS
  34. Duration                                 : 1 h 29 min
  35. Bit rate mode                            : Constant
  36. Bit rate                                 : 1 509 kb/s
  37. Channel(s)                               : 2 channels
  38. Channel layout                           : L R
  39. Sampling rate                            : 48.0 kHz
  40. Frame rate                               : 93.750 FPS (512 SPF)
  41. Bit depth                                : 16 bits
  42. Compression mode                         : Lossy
  43. Stream size                              : 970 MiB (12%)
  44. Title                                    : Pink.Bomb.1993.CHINESE.1080p.BluRay.x264.DTS-FGT
  45. Language                                 : Chinese
  46. Default                                  : Yes
  47. Forced                                   : No

  48. Text
  49. ID                                       : 3
  50. Format                                   : UTF-8
  51. Codec ID                                 : S_TEXT/UTF8
  52. Codec ID/Info                            : UTF-8 Plain Text
  53. Duration                                 : 1 h 27 min
  54. Bit rate                                 : 61 b/s
  55. Count of elements                        : 1513
  56. Stream size                              : 39.8 KiB (0%)
  57. Language                                 : English
  58. Default                                  : Yes
  59. Forced                                   : No

  60. Menu
  61. 00:00:00.000                             : en:Chapter 1
  62. 00:07:35.400                             : en:Chapter 2
  63. 00:14:53.320                             : en:Chapter 3
  64. 00:21:58.560                             : en:Chapter 4
  65. 00:30:52.920                             : en:Chapter 5
  66. 00:38:59.760                             : en:Chapter 6
  67. 00:44:04.440                             : en:Chapter 7
  68. 00:52:13.640                             : en:Chapter 8
  69. 01:01:36.240                             : en:Chapter 9
  70. 01:09:17.600                             : en:Chapter 10
  71. 01:16:38.400                             : en:Chapter 11
  72. 01:22:31.800                             : en:Chapter 12
复制代码

人生自得衰尽欢 Pink.Bomb.1993.CHINESE.1080p.BluRay.x264.DTS-FGT 8.17GB-2.png 人生自得衰尽欢 Pink.Bomb.1993.CHINESE.1080p.BluRay.x264.DTS-FGT 8.17GB-3.png 人生自得衰尽欢 Pink.Bomb.1993.CHINESE.1080p.BluRay.x264.DTS-FGT 8.17GB-4.png







VIP会员免费任意下载本站所有资源!---点击开通
回复

使用道具 举报

级别:一举成名 Lv.7

注册时间
2019-4-24
最后登录
2019-11-19
听众
13
收听
0
主题
0
蓝光币
197 枚
贡献
0 点
发表于 2019-11-8 11:11:49 | 显示全部楼层
楼主发贴辛苦了,谢谢楼主分享!我觉得中国高清电影网是注册对了!
VIP会员免费任意下载本站所有资源!---点击开通
回复

使用道具 举报

级别:普通观众 Lv.2

注册时间
2019-11-4
最后登录
2019-11-20
听众
0
收听
0
主题
0
蓝光币
18 枚
贡献
0 点
发表于 2019-11-10 06:23:01 | 显示全部楼层
楼主发贴辛苦了,谢谢楼主分享!我觉得中国高清电影网是注册对了!
VIP会员免费任意下载本站所有资源!---点击开通
回复

使用道具 举报

懒得打字嘛,点击右侧快捷回复 【右侧内容,后台自定义】
您需要登录后才可以回帖 登录 | 立即注册

本版积分规则

QQ|Archiver|手机版|小黑屋| 中国高清网 |网站地图

GMT+8, 2019-11-20 09:14 , Processed in 0.242803 second(s), 37 queries .

Powered by HDchina X3.4

Copyright 2017-2019©HDchina.All right reserved

返回顶部 联系我们