查看: 103|回复: 2

[动作片] 卫斯理传奇 The.Legend.of.Wisely.1987.CHINESE.1080p.BluRay.x264.DTS-FGT 8.05GB

[复制链接]

 成长值: 3210

级别:资源管理组

注册时间
2017-10-20
最后登录
2019-11-20
听众
1
收听
0
主题
87286
蓝光币
63258 枚
贡献
11645 点
发表于 2019-11-7 22:28:05 | 显示全部楼层 |阅读模式
衛斯理傳奇 The.Legend.of.Wisely.1987.CHINESE.1080p.BluRay.x264.DTS-FGT 8.05GB-1.png

译  名 卫斯理传奇 / The Legend of Wisely
片  名 衛斯理傳奇
年  代 1987
产  地 中国香港 / 西德
类  别 行动 / 科幻 / 冒险
语  言 粤语 / 日语
上映日期 1987-01-22(中国香港)
IMDb评分  6.3/10 from 290 users
IMDb链接  https://www.imdb.com/title/tt0090302
豆瓣评分 6.6/10 from 3422 users
豆瓣链接 https://movie.douban.com/subject/1302799/
片  长 90分钟
导  演 泰迪·罗宾 Teddy Robin
编  剧 廖坚为 Gerald Liu / 潘源良 Yuen-Leung Poon / 郑忠泰 Philip Cheng
主  演 许冠杰 Samuel Hui
       王祖贤 Joey Wang
       泰迪·罗宾 Teddy Robin
       狄龙 Lung Ti


标  签 香港 | 科幻 | 王祖贤 | 许冠杰 | 香港电影 | 行动 | 狄龙 | 泰迪罗宾

简  介  

  著名作家、冒险家卫斯理(许冠杰 饰)在埃及游用时,遭到了豪富翁霍普的拜托,后者请卫斯理寻觅他的师兄高峻威(泰迪罗宾 饰)。卫斯理在收到高峻威自动寄来的函件后,赶赴尼泊尔与其会合。高峻威当时正为青帮龙头白奇伟(狄龙 饰)寻觅传闻中的喜马拉雅龙珠,眼看成功在即却身陷“邪教”的追杀中,卫斯理帮助高峻威潜入宗教内部夺得龙珠,在撤出时飞机失事高峻威不知所踪,逃窜失利的卫斯理被带到只要五岁的小佛爷眼前,卫斯理受小佛爷感导,许诺追回龙珠,以延续此一教派。
  返回香港的卫斯理再遇霍普助手,并拒绝向对方交出龙珠,第一时候赶到白公馆,白奇伟之妹白素(王祖贤 饰)是卫斯理的书迷,在白素帮助下,卫斯理获得龙珠,可是一场三方围绕龙珠的争取战才刚刚起头……

获奖情况  

  第24届台北金马影展(1987)
  金马奖 最好外型设想(提名) 陈顾方
  金马奖 最好音效(提名)

  第7届香港电影金像奖(1988)
  最好摄影(提名) 鲍德熹
  最好原创电影歌曲(提名) 许冠杰 / Donald Ashley
  1. Video
  2. ID                                       : 1
  3. Format                                   : AVC
  4. Format/Info                              : Advanced Video Codec
  5. Format profile                           : High@L4
  6. Format settings                          : CABAC / 4 Ref Frames
  7. Format settings, CABAC                   : Yes
  8. Format settings, Reference frames        : 4 frames
  9. Codec ID                                 : V_MPEG4/ISO/AVC
  10. Duration                                 : 1 h 28 min
  11. Bit rate                                 : 11.5 Mb/s
  12. Width                                    : 1 920 pixels
  13. Height                                   : 812 pixels
  14. Display aspect ratio                     : 2.35:1
  15. Frame rate mode                          : Constant
  16. Frame rate                               : 24.000 FPS
  17. Color space                              : YUV
  18. Chroma subsampling                       : 4:2:0
  19. Bit depth                                : 8 bits
  20. Scan type                                : Progressive
  21. Bits/(Pixel*Frame)                       : 0.307
  22. Stream size                              : 7.11 GiB (88%)
  23. Title                                    : The.Legend.of.Wisely.1987.CHINESE.1080p.BluRay.x264.DTS-FGT
  24. Writing library                          : x264 core 148 r2748 97eaef2
  25. Encoding settings                        : cabac=1 / ref=4 / deblock=1:-2:-2 / analyse=0x3:0x113 / me=umh / subme=9 / psy=1 / psy_rd=1.00:0.15 / mixed_ref=1 / me_range=16 / chroma_me=1 / trellis=2 / 8x8dct=1 / cqm=0 / deadzone=21,11 / fast_pskip=1 / chroma_qp_offset=-3 / threads=24 / lookahead_threads=3 / sliced_threads=0 / nr=0 / decimate=1 / interlaced=0 / bluray_compat=0 / constrained_intra=0 / bframes=3 / b_pyramid=2 / b_adapt=1 / b_bias=0 / direct=3 / weightb=1 / open_gop=0 / weightp=2 / keyint=250 / keyint_min=25 / scenecut=40 / intra_refresh=0 / rc_lookahead=50 / rc=2pass / mbtree=1 / bitrate=11500 / ratetol=1.0 / qcomp=0.60 / qpmin=0 / qpmax=69 / qpstep=4 / cplxblur=20.0 / qblur=0.5 / vbv_maxrate=31250 / vbv_bufsize=31250 / nal_hrd=none / filler=0 / ip_ratio=1.40 / aq=1:1.00
  26. Language                                 : Chinese
  27. Default                                  : Yes
  28. Forced                                   : No

  29. Audio
  30. ID                                       : 2
  31. Format                                   : DTS
  32. Format/Info                              : Digital Theater Systems
  33. Codec ID                                 : A_DTS
  34. Duration                                 : 1 h 28 min
  35. Bit rate mode                            : Constant
  36. Bit rate                                 : 1 509 kb/s
  37. Channel(s)                               : 6 channels
  38. Channel layout                           : C L R Ls Rs LFE
  39. Sampling rate                            : 48.0 kHz
  40. Frame rate                               : 93.750 FPS (512 SPF)
  41. Bit depth                                : 16 bits
  42. Compression mode                         : Lossy
  43. Stream size                              : 954 MiB (12%)
  44. Title                                    : The.Legend.of.Wisely.1987.CHINESE.1080p.BluRay.x264.DTS-FGT
  45. Language                                 : Chinese
  46. Default                                  : Yes
  47. Forced                                   : No

  48. Text
  49. ID                                       : 3
  50. Format                                   : UTF-8
  51. Codec ID                                 : S_TEXT/UTF8
  52. Codec ID/Info                            : UTF-8 Plain Text
  53. Duration                                 : 1 h 22 min
  54. Bit rate                                 : 36 b/s
  55. Count of elements                        : 787
  56. Stream size                              : 21.8 KiB (0%)
  57. Language                                 : English
  58. Default                                  : Yes
  59. Forced                                   : No

  60. Menu
  61. 00:00:00.000                             : en:Chapter 01
  62. 00:05:24.291                             : en:Chapter 02
  63. 00:09:37.375                             : en:Chapter 03
  64. 00:13:17.583                             : en:Chapter 04
  65. 00:17:48.208                             : en:Chapter 05
  66. 00:22:42.375                             : en:Chapter 06
  67. 00:26:41.166                             : en:Chapter 07
  68. 00:30:11.833                             : en:Chapter 08
  69. 00:34:11.666                             : en:Chapter 09
  70. 00:38:27.041                             : en:Chapter 10
  71. 00:42:47.833                             : en:Chapter 11
  72. 00:47:53.208                             : en:Chapter 12
  73. 00:51:32.125                             : en:Chapter 13
  74. 00:55:54.125                             : en:Chapter 14
  75. 00:59:41.333                             : en:Chapter 15
  76. 01:06:39.250                             : en:Chapter 16
  77. 01:11:00.958                             : en:Chapter 17
  78. 01:16:26.666                             : en:Chapter 18
  79. 01:19:52.958                             : en:Chapter 19
  80. 01:24:43.166                             : en:Chapter 20
复制代码

衛斯理傳奇 The.Legend.of.Wisely.1987.CHINESE.1080p.BluRay.x264.DTS-FGT 8.05GB-2.png 222651hkpxh3xpjhkpmhxj.png 衛斯理傳奇 The.Legend.of.Wisely.1987.CHINESE.1080p.BluRay.x264.DTS-FGT 8.05GB-4.png







VIP会员免费任意下载本站所有资源!---点击开通
回复

使用道具 举报

级别:一举成名 Lv.7

注册时间
2019-4-24
最后登录
2019-11-20
听众
13
收听
0
主题
0
蓝光币
197 枚
贡献
0 点
发表于 2019-11-8 11:12:35 | 显示全部楼层
楼主发贴辛苦了,谢谢楼主分享!我觉得中国高清电影网是注册对了!
VIP会员免费任意下载本站所有资源!---点击开通
回复

使用道具 举报

级别:普通观众 Lv.2

注册时间
2019-11-4
最后登录
2019-11-20
听众
0
收听
0
主题
0
蓝光币
18 枚
贡献
0 点
发表于 2019-11-11 06:54:51 | 显示全部楼层
楼主发贴辛苦了,谢谢楼主分享!我觉得中国高清电影网是注册对了!
VIP会员免费任意下载本站所有资源!---点击开通
回复

使用道具 举报

懒得打字嘛,点击右侧快捷回复 【右侧内容,后台自定义】
您需要登录后才可以回帖 登录 | 立即注册

本版积分规则

QQ|Archiver|手机版|小黑屋| 中国高清网 |网站地图

GMT+8, 2019-11-20 23:09 , Processed in 0.266694 second(s), 37 queries .

Powered by HDchina X3.4

Copyright 2017-2019©HDchina.All right reserved

返回顶部 联系我们