查看: 13|回复: 0

[恐怖片] 净化之时 The.Cleansing.Hour.2019.1080p.WEB-DL.DD5.1.H264-FGT 3.18GB

[复制链接]

 成长值: 3160

级别:资源管理组

注册时间
2017-10-20
最后登录
2019-11-11
听众
1
收听
0
主题
86761
蓝光币
61865 枚
贡献
11119 点
发表于 2019-11-7 22:07:59 | 显示全部楼层 |阅读模式
净化之时 The.Cleansing.Hour.2019.1080p.WEB-DL.DD5.1.H264-FGT 3.18GB-1.png

译  名 净化之时
片  名 The Cleansing Hour
年  代 2018
产  地 美国
类  别 可骇
IMDb评分  6.8/10 from 64 users
IMDb链接  https://www.imdb.com/title/tt8009906
豆瓣评分 0/10 from 0 users
豆瓣链接 https://movie.douban.com/subject/30257608/
导  演 Damien LeVeck
编  剧 Aaron Horwitz / Damien LeVeck
主  演 凯尔·加尔纳 Kyle Gallner
       瑞安·古兹曼 Ryan Guzman
       乔安娜·大卫 Joanna David
       Alix Angelis
       Giulia Nahmany
       艾玛·霍泽尔 Emma Holzer
       Daniel Hoffmann-Gill


标  签 可骇 | 驱魔 | 翻拍 | 美国电影 | 灵异 | 改编 | 9

简  介  

  Millennial entrepreneurs, Drew and Max, run a webcast that streams live exorcisms that are, in fact, elaborately staged hoaxes. But they get their comeuppance when today's actress becomes mysteriously possessed by a real demon that holds the crew hostage. To make matters worse-- the possessed victim is Drew's fiancée, Lane. In front of a rapidly-growing global audience, the demon subjects Max to a series of violent and humiliating challenges meant to punish him for his online charade. Meanwhile, in an effort to save the love of his life, Drew discovers that the demon's sinister motive is not only about revenge, but also to expose the dark secrets he, Max, and Lane have been hiding from one another. With only the show clock remaining, it's a matter of time before either the truth is revealed or the demon forces them to meet their maker.
  1. Video
  2. ID                                       : 1
  3. Format                                   : AVC
  4. Format/Info                              : Advanced Video Codec
  5. Format profile                           : High@L4
  6. Format settings                          : CABAC / 5 Ref Frames
  7. Format settings, CABAC                   : Yes
  8. Format settings, Reference frames        : 5 frames
  9. Codec ID                                 : V_MPEG4/ISO/AVC
  10. Duration                                 : 1 h 31 min
  11. Bit rate                                 : 4 594 kb/s
  12. Width                                    : 1 912 pixels
  13. Height                                   : 804 pixels
  14. Display aspect ratio                     : 2.40:1
  15. Frame rate mode                          : Constant
  16. Frame rate                               : 25.000 FPS
  17. Color space                              : YUV
  18. Chroma subsampling                       : 4:2:0
  19. Bit depth                                : 8 bits
  20. Scan type                                : Progressive
  21. Bits/(Pixel*Frame)                       : 0.120
  22. Stream size                              : 2.93 GiB (92%)
  23. Title                                    : The.Cleansing.Hour.2019.1080p.WEB-DL.DD5.1.H264-FGT
  24. Language                                 : English
  25. Default                                  : Yes
  26. Forced                                   : No
  27. Color range                              : Limited
  28. Color primaries                          : BT.709
  29. Transfer characteristics                 : BT.709
  30. Matrix coefficients                      : BT.709

  31. Audio
  32. ID                                       : 2
  33. Format                                   : AC-3
  34. Format/Info                              : Audio Coding 3
  35. Commercial name                          : Dolby Digital
  36. Codec ID                                 : A_AC3
  37. Duration                                 : 1 h 31 min
  38. Bit rate mode                            : Constant
  39. Bit rate                                 : 384 kb/s
  40. Channel(s)                               : 6 channels
  41. Channel layout                           : L R C LFE Ls Rs
  42. Sampling rate                            : 48.0 kHz
  43. Frame rate                               : 31.250 FPS (1536 SPF)
  44. Bit depth                                : 16 bits
  45. Compression mode                         : Lossy
  46. Stream size                              : 251 MiB (8%)
  47. Title                                    : The.Cleansing.Hour.2019.1080p.WEB-DL.DD5.1.H264-FGT
  48. Language                                 : English
  49. Service kind                             : Complete Main
  50. Default                                  : Yes
  51. Forced                                   : No
复制代码

净化之时 The.Cleansing.Hour.2019.1080p.WEB-DL.DD5.1.H264-FGT 3.18GB-2.png 净化之时 The.Cleansing.Hour.2019.1080p.WEB-DL.DD5.1.H264-FGT 3.18GB-3.png 220719pwkn4d5y4pnkwpzf.png







VIP会员免费任意下载本站所有资源!---点击开通
回复

使用道具 举报

懒得打字嘛,点击右侧快捷回复 【右侧内容,后台自定义】
您需要登录后才可以回帖 登录 | 立即注册

本版积分规则

QQ|Archiver|手机版|小黑屋| 中国高清网 |网站地图 

GMT+8, 2019-11-15 11:18 , Processed in 0.230501 second(s), 37 queries .

Powered by HDchina X3.4

Copyright 2017-2019©HDchina.All right reserved

返回顶部 联系我们