查看: 11|回复: 0

[纪录片] 传奇剧院阿波罗 The.Apollo.2019.1080p.AMZN.WEBRip.DDP5.1.H264-NTG 6.70GB

[复制链接]

 成长值: 3140

级别:资源管理组

注册时间
2017-10-20
最后登录
2019-11-11
听众
1
收听
0
主题
86761
蓝光币
61613 枚
贡献
11119 点
发表于 6 天前 | 显示全部楼层 |阅读模式
211320r6t73ipu2b9jui3n.png

译  名 传奇剧院阿波罗
片  名 The Apollo
年  代 2019
产  地 美国
类  别 记载片 / 音乐
语  言 英语
上映日期 2019-04-24(美国)
IMDb评分  4.5/10 from 44 users
IMDb链接  https://www.imdb.com/title/tt7935908
豆瓣评分 0/10 from 0 users
豆瓣链接 https://movie.douban.com/subject/33435877/
导  演 罗杰·罗斯·威廉姆斯 Roger Ross Williams
编  剧 罗杰·罗斯·威廉姆斯 Roger Ross Williams / Cassidy Hartmann
主  演 杰米·福克斯 Jamie Foxx
       帕蒂·拉贝尔 Patti LaBelle
       史摩基·罗宾逊 Smokey Robinson
       法瑞尔·威廉姆斯 Pharrell Williams


标  签 下午電影 | 2019

简  介  

  The history of New York City's Apollo Theater in Harlem is given the full treatment.
  1. Video
  2. ID                                       : 1
  3. Format                                   : AVC
  4. Format/Info                              : Advanced Video Codec
  5. Format profile                           : High@L4
  6. Format settings                          : CABAC / 4 Ref Frames
  7. Format settings, CABAC                   : Yes
  8. Format settings, Reference frames        : 4 frames
  9. Codec ID                                 : V_MPEG4/ISO/AVC
  10. Duration                                 : 1 h 42 min
  11. Bit rate mode                            : Constant
  12. Bit rate                                 : 8 766 kb/s
  13. Nominal bit rate                         : 10 000 kb/s
  14. Width                                    : 1 920 pixels
  15. Height                                   : 1 080 pixels
  16. Display aspect ratio                     : 16:9
  17. Frame rate mode                          : Constant
  18. Frame rate                               : 23.976 (24000/1001) FPS
  19. Color space                              : YUV
  20. Chroma subsampling                       : 4:2:0
  21. Bit depth                                : 8 bits
  22. Scan type                                : Progressive
  23. Bits/(Pixel*Frame)                       : 0.176
  24. Stream size                              : 6.25 GiB (93%)
  25. Default                                  : Yes
  26. Forced                                   : No
  27. Color range                              : Limited
  28. Color primaries                          : BT.709
  29. Transfer characteristics                 : BT.709
  30. Matrix coefficients                      : BT.709

  31. Audio
  32. ID                                       : 2
  33. Format                                   : E-AC-3
  34. Format/Info                              : Enhanced AC-3
  35. Commercial name                          : Dolby Digital Plus
  36. Codec ID                                 : A_EAC3
  37. Duration                                 : 1 h 42 min
  38. Bit rate mode                            : Constant
  39. Bit rate                                 : 640 kb/s
  40. Channel(s)                               : 6 channels
  41. Channel layout                           : L R C LFE Ls Rs
  42. Sampling rate                            : 48.0 kHz
  43. Frame rate                               : 31.250 FPS (1536 SPF)
  44. Compression mode                         : Lossy
  45. Stream size                              : 467 MiB (7%)
  46. Language                                 : English
  47. Service kind                             : Complete Main
  48. Default                                  : Yes
  49. Forced                                   : No

  50. Text #1
  51. ID                                       : 3
  52. Format                                   : UTF-8
  53. Codec ID                                 : S_TEXT/UTF8
  54. Codec ID/Info                            : UTF-8 Plain Text
  55. Duration                                 : 1 h 40 min
  56. Bit rate                                 : 84 b/s
  57. Count of elements                        : 1849
  58. Stream size                              : 62.8 KiB (0%)
  59. Language                                 : English
  60. Default                                  : No
  61. Forced                                   : No

  62. Text #2
  63. ID                                       : 4
  64. Format                                   : UTF-8
  65. Codec ID                                 : S_TEXT/UTF8
  66. Codec ID/Info                            : UTF-8 Plain Text
  67. Duration                                 : 1 h 41 min
  68. Bit rate                                 : 89 b/s
  69. Count of elements                        : 2106
  70. Stream size                              : 66.8 KiB (0%)
  71. Title                                    : SDH
  72. Language                                 : English
  73. Default                                  : No
  74. Forced                                   : No
复制代码

传奇剧院阿波罗 The.Apollo.2019.1080p.AMZN.WEBRip.DDP5.1.H264-NTG 6.70GB-2.png 传奇剧院阿波罗 The.Apollo.2019.1080p.AMZN.WEBRip.DDP5.1.H264-NTG 6.70GB-3.png 传奇剧院阿波罗 The.Apollo.2019.1080p.AMZN.WEBRip.DDP5.1.H264-NTG 6.70GB-4.png







VIP会员免费任意下载本站所有资源!---点击开通
回复

使用道具 举报

懒得打字嘛,点击右侧快捷回复 【右侧内容,后台自定义】
您需要登录后才可以回帖 登录 | 立即注册

本版积分规则

QQ|Archiver|手机版|小黑屋| 中国高清网 |网站地图 

GMT+8, 2019-11-13 17:04 , Processed in 0.227820 second(s), 37 queries .

Powered by HDchina X3.4

Copyright 2017-2019©HDchina.All right reserved

返回顶部 联系我们