查看: 8|回复: 0

[纪录片] 尤金.史密斯的爵士轶事 The.Jazz.Loft.According.to.W.Eugene.Smith.2015.720p.AMZN.WEBRip.DDP2.0.x264-GLI 2.34GB

[复制链接]

 成长值: 3160

级别:资源管理组

注册时间
2017-10-20
最后登录
2019-11-11
听众
1
收听
0
主题
86761
蓝光币
61817 枚
贡献
11119 点
发表于 2019-11-7 21:12:47 | 显示全部楼层 |阅读模式
211207opebehjw0qj2754s.png

译  名 尤金.史姑娘的爵士轶事
片  名 The Jazz Loft According to W. Eugene Smith
年  代 2016
产  地 美国
类  别 记载片 / 列传 / 历史
语  言 英语
IMDb评分  8.2/10 from 64 users
IMDb链接  https://www.imdb.com/title/tt3106314
豆瓣评分 0/10 from 0 users
豆瓣链接 https://movie.douban.com/subject/27041182/
导  演 Sara Fishko
编  剧 Sara Fishko

标  签 记载片 | 美国 | 音乐 | 爵士 | 美國 | 2010s

简  介  

  Art, obsession and anxiety permeate a dilapidated Manhattan loft building in Mid-century: The first movie to use photographer W. Eugene Smith’s massive, fly-on-the-wall archive of photos and audio tapes documenting the likes of jazz greats Thelonious Monk, Zoot Sims, Jimmy Giuffre, Hall Overton and others at work and play in the Sixth Avenue wreck that was Smith’s home and studio from 1957 through the ’60s.
  1. Video
  2. ID                                       : 1
  3. Format                                   : AVC
  4. Format/Info                              : Advanced Video Codec
  5. Format profile                           : High@L4
  6. Format settings                          : CABAC / 4 Ref Frames
  7. Format settings, CABAC                   : Yes
  8. Format settings, Reference frames        : 4 frames
  9. Codec ID                                 : V_MPEG4/ISO/AVC
  10. Duration                                 : 1 h 28 min
  11. Bit rate mode                            : Constant
  12. Bit rate                                 : 3 552 kb/s
  13. Nominal bit rate                         : 6 000 kb/s
  14. Width                                    : 1 280 pixels
  15. Height                                   : 720 pixels
  16. Display aspect ratio                     : 16:9
  17. Frame rate mode                          : Constant
  18. Frame rate                               : 29.970 (30000/1001) FPS
  19. Color space                              : YUV
  20. Chroma subsampling                       : 4:2:0
  21. Bit depth                                : 8 bits
  22. Scan type                                : Progressive
  23. Bits/(Pixel*Frame)                       : 0.129
  24. Stream size                              : 2.20 GiB (94%)
  25. Default                                  : Yes
  26. Forced                                   : No
  27. Color range                              : Limited
  28. Color primaries                          : BT.709
  29. Transfer characteristics                 : BT.709
  30. Matrix coefficients                      : BT.709

  31. Audio
  32. ID                                       : 2
  33. Format                                   : E-AC-3
  34. Format/Info                              : Enhanced AC-3
  35. Commercial name                          : Dolby Digital Plus
  36. Codec ID                                 : A_EAC3
  37. Duration                                 : 1 h 28 min
  38. Bit rate mode                            : Constant
  39. Bit rate                                 : 224 kb/s
  40. Channel(s)                               : 2 channels
  41. Channel layout                           : L R
  42. Sampling rate                            : 48.0 kHz
  43. Frame rate                               : 31.250 FPS (1536 SPF)
  44. Compression mode                         : Lossy
  45. Stream size                              : 142 MiB (6%)
  46. Language                                 : English
  47. Service kind                             : Complete Main
  48. Default                                  : Yes
  49. Forced                                   : No

  50. Text
  51. ID                                       : 3
  52. Format                                   : UTF-8
  53. Codec ID                                 : S_TEXT/UTF8
  54. Codec ID/Info                            : UTF-8 Plain Text
  55. Duration                                 : 1 h 24 min
  56. Bit rate                                 : 86 b/s
  57. Count of elements                        : 1348
  58. Stream size                              : 53.4 KiB (0%)
  59. Title                                    : SDH
  60. Language                                 : English
  61. Default                                  : Yes
  62. Forced                                   : No
复制代码

尤金.史姑娘的爵士轶事 The.Jazz.Loft.According.to.W.Eugene.Smith.2015.720p.AMZN.WEBRip.DDP2.0.x264-GLI 2.34GB-2.png 尤金.史姑娘的爵士轶事 The.Jazz.Loft.According.to.W.Eugene.Smith.2015.720p.AMZN.WEBRip.DDP2.0.x264-GLI 2.34GB-3.png 尤金.史姑娘的爵士轶事 The.Jazz.Loft.According.to.W.Eugene.Smith.2015.720p.AMZN.WEBRip.DDP2.0.x264-GLI 2.34GB-4.png







VIP会员免费任意下载本站所有资源!---点击开通
回复

使用道具 举报

懒得打字嘛,点击右侧快捷回复 【右侧内容,后台自定义】
您需要登录后才可以回帖 登录 | 立即注册

本版积分规则

QQ|Archiver|手机版|小黑屋| 中国高清网 |网站地图 

GMT+8, 2019-11-15 08:09 , Processed in 0.229877 second(s), 37 queries .

Powered by HDchina X3.4

Copyright 2017-2019©HDchina.All right reserved

返回顶部 联系我们