查看: 30|回复: 1

[喜剧片] 好小子们/好小子 Good.Boys.2019.1080p.BluRay.REMUX.AVC.DTS-HD.MA.5.1-FGT 22.98GB

[复制链接]

 成长值: 3160

级别:资源管理组

注册时间
2017-10-20
最后登录
2019-11-11
听众
1
收听
0
主题
86761
蓝光币
61811 枚
贡献
11119 点
发表于 2019-11-7 21:10:08 | 显示全部楼层 |阅读模式
好小子们/好小子 Good.Boys.2019.1080p.BluRay.REMUX.AVC.DTS-HD.MA.5.1-FGT 22.98GB-1.png

译  名 好小子们 / 好小子 / 好小男孩(台) / 好男孩 / 好男孩们 / 曳曳同学会(港)
片  名 Good Boys
年  代 2019
产  地 美国
类  别 笑剧 / 冒险
语  言 英语
上映日期 2019-08-16(美国)
IMDb评分  6.8/10 from 16367 users
IMDb链接  https://www.imdb.com/title/tt7343762
豆瓣评分 7.5/10 from 1005 users
豆瓣链接 https://movie.douban.com/subject/27115166/
片  长 90分钟
导  演 吉恩·斯图普尼兹基 Gene Stupnitsky
编  剧 李·艾森伯格 Lee Eisenberg / 吉恩·斯图普尼兹基 Gene Stupnitsky
主  演 雅各布·特伦布莱 Jacob Tremblay
       基思·L·威廉姆斯 Keith L. Williams
       布雷迪·诺恩 Brady Noon
       莫莉·戈登 Molly Gordon
       米多莉·弗朗西斯 Midori Francis
       米莉·戴维斯 Millie Davis
       乔希·卡拉斯 Josh Caras
       威尔·福特 Will Forte
       里尔·莱尔·哈瓦瑞 Lil Rel Howery
       瑞塔 Retta
       麦可拉·沃金丝 Michaela Watkins
       钱斯·赫斯菲尔德 Chance Hurstfield
       伊妮德·雷伊·亚当斯 Enid-Raye Adams
       克雷格·哈斯 Craig Haas
       山姆·理查森 Sam Richardson
       贝妮塔·夏 Benita Ha
       亚历山大·卡尔弗特 Alexander Calvert
       玛雅·斯泰斯-史姑娘 Maja Stace-Smith
       马特·埃利斯 Matt Ellis
       玛莉·格雷斯·贝克尔 Marlee Grace Becker
       丽娜·伦纳 Lina Renna
       奥黛丽·斯莫尔曼 Audrey Smallman
       保罗·贝克 Paul Becker
       李·艾森伯格 Lee Eisenberg


标  签 笑剧 | 美国 | 2019 | 搞笑 | 儿童 | R | 青春 | 长大

简  介  

  影片围绕着四个12岁叛逆男孩展开,他们想要在怙恃回家前从洛杉矶郊区前往市中心换掉被摔坏的无人机。
  1. Video
  2. ID                                       : 1
  3. Format                                   : AVC
  4. Format/Info                              : Advanced Video Codec
  5. Format profile                           : High@L4
  6. Format settings                          : CABAC / 4 Ref Frames
  7. Format settings, CABAC                   : Yes
  8. Format settings, Reference frames        : 4 frames
  9. Format settings, GOP                     : M=3, N=12
  10. Codec ID                                 : V_MPEG4/ISO/AVC
  11. Duration                                 : 1 h 29 min
  12. Bit rate mode                            : Variable
  13. Bit rate                                 : 31.3 Mb/s
  14. Maximum bit rate                         : 34.7 Mb/s
  15. Width                                    : 1 920 pixels
  16. Height                                   : 1 080 pixels
  17. Display aspect ratio                     : 16:9
  18. Frame rate mode                          : Constant
  19. Frame rate                               : 23.976 (24000/1001) FPS
  20. Color space                              : YUV
  21. Chroma subsampling                       : 4:2:0
  22. Bit depth                                : 8 bits
  23. Scan type                                : Progressive
  24. Bits/(Pixel*Frame)                       : 0.629
  25. Stream size                              : 19.6 GiB (85%)
  26. Title                                    : Good.Boys.2019.1080p.BluRay.REMUX.AVC.DTS-HD.MA.5.1-FGT
  27. Language                                 : English
  28. Default                                  : No
  29. Forced                                   : No

  30. Audio #1
  31. ID                                       : 2
  32. Format                                   : DTS XLL
  33. Format/Info                              : Digital Theater Systems
  34. Commercial name                          : DTS-HD Master Audio
  35. Codec ID                                 : A_DTS
  36. Duration                                 : 1 h 29 min
  37. Bit rate mode                            : Variable
  38. Bit rate                                 : 3 425 kb/s
  39. Channel(s)                               : 6 channels
  40. Channel layout                           : C L R Ls Rs LFE
  41. Sampling rate                            : 48.0 kHz
  42. Frame rate                               : 93.750 FPS (512 SPF)
  43. Bit depth                                : 24 bits
  44. Compression mode                         : Lossless
  45. Stream size                              : 2.14 GiB (9%)
  46. Title                                    : Good.Boys.2019.1080p.BluRay.REMUX.AVC.DTS-HD.MA.5.1-FGT
  47. Language                                 : English
  48. Default                                  : Yes
  49. Forced                                   : No

  50. Audio #2
  51. ID                                       : 3
  52. Format                                   : DTS
  53. Format/Info                              : Digital Theater Systems
  54. Codec ID                                 : A_DTS
  55. Duration                                 : 1 h 29 min
  56. Bit rate mode                            : Constant
  57. Bit rate                                 : 768 kb/s
  58. Channel(s)                               : 6 channels
  59. Channel layout                           : C L R Ls Rs LFE
  60. Sampling rate                            : 48.0 kHz
  61. Frame rate                               : 93.750 FPS (512 SPF)
  62. Bit depth                                : 24 bits
  63. Compression mode                         : Lossy
  64. Stream size                              : 492 MiB (2%)
  65. Title                                    : Good.Boys.2019.1080p.BluRay.REMUX.AVC.DTS-HD.MA.5.1-FGT
  66. Language                                 : Spanish
  67. Default                                  : No
  68. Forced                                   : No

  69. Audio #3
  70. ID                                       : 4
  71. Format                                   : DTS
  72. Format/Info                              : Digital Theater Systems
  73. Codec ID                                 : A_DTS
  74. Duration                                 : 1 h 29 min
  75. Bit rate mode                            : Constant
  76. Bit rate                                 : 768 kb/s
  77. Channel(s)                               : 6 channels
  78. Channel layout                           : C L R Ls Rs LFE
  79. Sampling rate                            : 48.0 kHz
  80. Frame rate                               : 93.750 FPS (512 SPF)
  81. Bit depth                                : 24 bits
  82. Compression mode                         : Lossy
  83. Stream size                              : 492 MiB (2%)
  84. Title                                    : Good.Boys.2019.1080p.BluRay.REMUX.AVC.DTS-HD.MA.5.1-FGT
  85. Language                                 : French
  86. Default                                  : No
  87. Forced                                   : No

  88. Audio #4
  89. ID                                       : 5
  90. Format                                   : AC-3
  91. Format/Info                              : Audio Coding 3
  92. Commercial name                          : Dolby Digital
  93. Codec ID                                 : A_AC3
  94. Duration                                 : 1 h 29 min
  95. Bit rate mode                            : Constant
  96. Bit rate                                 : 192 kb/s
  97. Channel(s)                               : 2 channels
  98. Channel layout                           : L R
  99. Sampling rate                            : 48.0 kHz
  100. Frame rate                               : 31.250 FPS (1536 SPF)
  101. Bit depth                                : 16 bits
  102. Compression mode                         : Lossy
  103. Stream size                              : 123 MiB (1%)
  104. Title                                    : Good.Boys.2019.1080p.BluRay.REMUX.AVC.DTS-HD.MA.5.1-FGT
  105. Language                                 : English
  106. Service kind                             : Complete Main
  107. Default                                  : No
  108. Forced                                   : No

  109. Audio #5
  110. ID                                       : 6
  111. Format                                   : AC-3
  112. Format/Info                              : Audio Coding 3
  113. Commercial name                          : Dolby Digital
  114. Codec ID                                 : A_AC3
  115. Duration                                 : 1 h 29 min
  116. Bit rate mode                            : Constant
  117. Bit rate                                 : 192 kb/s
  118. Channel(s)                               : 2 channels
  119. Channel layout                           : L R
  120. Sampling rate                            : 48.0 kHz
  121. Frame rate                               : 31.250 FPS (1536 SPF)
  122. Bit depth                                : 16 bits
  123. Compression mode                         : Lossy
  124. Stream size                              : 123 MiB (1%)
  125. Title                                    : Good.Boys.2019.1080p.BluRay.REMUX.AVC.DTS-HD.MA.5.1-FGT
  126. Language                                 : English
  127. Service kind                             : Complete Main
  128. Default                                  : No
  129. Forced                                   : No

  130. Text #1
  131. ID                                       : 7
  132. Format                                   : UTF-8
  133. Codec ID                                 : S_TEXT/UTF8
  134. Codec ID/Info                            : UTF-8 Plain Text
  135. Duration                                 : 1 h 22 min
  136. Bit rate                                 : 78 b/s
  137. Count of elements                        : 1492
  138. Stream size                              : 46.9 KiB (0%)
  139. Title                                    : English-SRT
  140. Language                                 : English
  141. Default                                  : Yes
  142. Forced                                   : No

  143. Text #2
  144. ID                                       : 8
  145. Format                                   : PGS
  146. Muxing mode                              : zlib
  147. Codec ID                                 : S_HDMV/PGS
  148. Codec ID/Info                            : Picture based subtitle format used on BDs/HD-DVDs
  149. Duration                                 : 1 h 22 min
  150. Bit rate                                 : 65.4 kb/s
  151. Count of elements                        : 3415
  152. Stream size                              : 38.7 MiB (0%)
  153. Title                                    : English-PGS
  154. Language                                 : English
  155. Default                                  : No
  156. Forced                                   : No

  157. Text #3
  158. ID                                       : 9
  159. Format                                   : PGS
  160. Muxing mode                              : zlib
  161. Codec ID                                 : S_HDMV/PGS
  162. Codec ID/Info                            : Picture based subtitle format used on BDs/HD-DVDs
  163. Duration                                 : 1 h 28 min
  164. Bit rate                                 : 52.2 kb/s
  165. Count of elements                        : 2906
  166. Stream size                              : 33.0 MiB (0%)
  167. Title                                    : Spanish-PGS
  168. Language                                 : Spanish
  169. Default                                  : No
  170. Forced                                   : No

  171. Text #4
  172. ID                                       : 10
  173. Format                                   : PGS
  174. Muxing mode                              : zlib
  175. Codec ID                                 : S_HDMV/PGS
  176. Codec ID/Info                            : Picture based subtitle format used on BDs/HD-DVDs
  177. Duration                                 : 1 h 28 min
  178. Bit rate                                 : 54.0 kb/s
  179. Count of elements                        : 2900
  180. Stream size                              : 34.1 MiB (0%)
  181. Title                                    : French-PGS
  182. Language                                 : French
  183. Default                                  : No
  184. Forced                                   : No

  185. Text #5
  186. ID                                       : 11
  187. Format                                   : PGS
  188. Muxing mode                              : zlib
  189. Codec ID                                 : S_HDMV/PGS
  190. Codec ID/Info                            : Picture based subtitle format used on BDs/HD-DVDs
  191. Duration                                 : 1 h 15 min
  192. Bit rate                                 : 214 b/s
  193. Count of elements                        : 18
  194. Stream size                              : 119 KiB (0%)
  195. Title                                    : Spanish-FORCED-PGS
  196. Language                                 : Spanish
  197. Default                                  : No
  198. Forced                                   : No

  199. Text #6
  200. ID                                       : 12
  201. Format                                   : PGS
  202. Muxing mode                              : zlib
  203. Codec ID                                 : S_HDMV/PGS
  204. Codec ID/Info                            : Picture based subtitle format used on BDs/HD-DVDs
  205. Duration                                 : 1 h 28 min
  206. Bit rate                                 : 411 b/s
  207. Count of elements                        : 36
  208. Stream size                              : 266 KiB (0%)
  209. Title                                    : French-FORCED-PGS
  210. Language                                 : French
  211. Default                                  : No
  212. Forced                                   : No

  213. Menu
  214. 00:00:00.000                             : en:Chapter 01
  215. 00:03:54.025                             : en:Chapter 02
  216. 00:09:00.164                             : en:Chapter 03
  217. 00:11:51.168                             : en:Chapter 04
  218. 00:15:08.657                             : en:Chapter 05
  219. 00:17:29.840                             : en:Chapter 06
  220. 00:21:20.696                             : en:Chapter 07
  221. 00:27:27.687                             : en:Chapter 08
  222. 00:31:25.675                             : en:Chapter 09
  223. 00:35:06.104                             : en:Chapter 10
  224. 00:40:11.867                             : en:Chapter 11
  225. 00:47:16.208                             : en:Chapter 12
  226. 00:51:01.183                             : en:Chapter 13
  227. 00:57:54.387                             : en:Chapter 14
  228. 01:02:27.952                             : en:Chapter 15
  229. 01:06:46.544                             : en:Chapter 16
  230. 01:09:56.901                             : en:Chapter 17
  231. 01:14:19.204                             : en:Chapter 18
  232. 01:20:00.796                             : en:Chapter 19
  233. 01:23:35.427                             : en:Chapter 20
复制代码

好小子们/好小子 Good.Boys.2019.1080p.BluRay.REMUX.AVC.DTS-HD.MA.5.1-FGT 22.98GB-2.png 好小子们/好小子 Good.Boys.2019.1080p.BluRay.REMUX.AVC.DTS-HD.MA.5.1-FGT 22.98GB-3.png 好小子们/好小子 Good.Boys.2019.1080p.BluRay.REMUX.AVC.DTS-HD.MA.5.1-FGT 22.98GB-4.png







VIP会员免费任意下载本站所有资源!---点击开通
回复

使用道具 举报

级别:群众演员 Lv.3

注册时间
2018-1-26
最后登录
2019-11-15
听众
3
收听
0
主题
0
蓝光币
3 枚
贡献
0 点
发表于 昨天 09:12 | 显示全部楼层
██████在-线-看-片bxxp7.c o m 】██████

██████在-线-看-片
bxxp7.c o m 】██████

██████在-线-看-片
bxxp7.c o m 】██████

██████在-线-看-片
bxxp7.c o m 】██████

██████在-线-看-片
bxxp7.c o m 】██████

██████在-线-看-片
bxxp7.c o m 】██████

██████在-线-看-片
bxxp7.c o m 】██████
VIP会员免费任意下载本站所有资源!---点击开通
回复

使用道具 举报

懒得打字嘛,点击右侧快捷回复 【右侧内容,后台自定义】
您需要登录后才可以回帖 登录 | 立即注册

本版积分规则

QQ|Archiver|手机版|小黑屋| 中国高清网 |网站地图 

GMT+8, 2019-11-15 07:27 , Processed in 0.267576 second(s), 37 queries .

Powered by HDchina X3.4

Copyright 2017-2019©HDchina.All right reserved

返回顶部 联系我们