查看: 33|回复: 1

[动画片] 小小驯鹿艾略特 Elliot.The.Littlest.Reindeer.2018.1080p.BluRay.x264-GETiT 6.54GB

[复制链接]

 成长值: 3160

级别:资源管理组

注册时间
2017-10-20
最后登录
2019-11-11
听众
1
收听
0
主题
86761
蓝光币
61813 枚
贡献
11119 点
发表于 2019-11-7 20:58:55 | 显示全部楼层 |阅读模式
小小驯鹿艾略特 Elliot.The.Littlest.Reindeer.2018.1080p.BluRay.x264-GETiT 6.54GB-1.png

译  名 小小驯鹿艾略特
片  名 Elliot the Littlest Reindeer
年  代 2018
产  地 加拿大
类  别 动画 / 家庭
语  言 英语
上映日期 2018-11-30(美国)
IMDb评分  5.0/10 from 316 users
IMDb链接  https://www.imdb.com/title/tt4177856
豆瓣评分 0/10 from 0 users
豆瓣链接 https://movie.douban.com/subject/27139372/
片  长 60分钟
导  演 Jennifer Westcott
编  剧 Jennifer Westcott
主  演 莫蕾娜·巴卡林 Morena Baccarin
       乔什·哈切森 Josh Hutcherson
       约翰·克立斯 John Cleese
       马丁·肖特 Martin Short
       杰夫·敦哈姆 Jeff Dunham
       克里斯托弗·贾科特 Christopher Jacot
       萨曼莎·比 Samantha Bee
       罗伯特·丁克勒 Robert Tinkler
       George Buza
       Jean Yoon
       朱莉·勒米厄 Julie Lemieux
       Scott Farley
       Carlos Bustamante
       Steph Lynn Robinson
       Carly Heffernan


标  签 圣诞 | 动画 | 加拿大

简  介  

  When Blitzen announces his retirement on December 21st, a miniature horse has 3 days to fulfill his lifelong dream of earning a spot on Santa's team at the North Pole try-outs.
  1. Video
  2. ID                                       : 1
  3. Format                                   : AVC
  4. Format/Info                              : Advanced Video Codec
  5. Format profile                           : High@L4
  6. Format settings                          : CABAC / 5 Ref Frames
  7. Format settings, CABAC                   : Yes
  8. Format settings, Reference frames        : 5 frames
  9. Codec ID                                 : V_MPEG4/ISO/AVC
  10. Duration                                 : 1 h 29 min
  11. Bit rate                                 : 8 945 kb/s
  12. Width                                    : 1 920 pixels
  13. Height                                   : 816 pixels
  14. Display aspect ratio                     : 2.35:1
  15. Frame rate mode                          : Constant
  16. Frame rate                               : 23.976 (24000/1001) FPS
  17. Color space                              : YUV
  18. Chroma subsampling                       : 4:2:0
  19. Bit depth                                : 8 bits
  20. Scan type                                : Progressive
  21. Bits/(Pixel*Frame)                       : 0.238
  22. Stream size                              : 5.59 GiB (86%)
  23. Writing library                          : x264 core 157 r2969 d4099dd
  24. Encoding settings                        : cabac=1 / ref=5 / deblock=1:0:0 / analyse=0x3:0x133 / me=umh / subme=7 / psy=1 / psy_rd=1.00:0.00 / mixed_ref=1 / me_range=16 / chroma_me=1 / trellis=2 / 8x8dct=1 / cqm=0 / deadzone=21,11 / fast_pskip=0 / chroma_qp_offset=-2 / threads=9 / lookahead_threads=1 / sliced_threads=0 / nr=0 / decimate=1 / interlaced=0 / bluray_compat=0 / constrained_intra=0 / bframes=3 / b_pyramid=2 / b_adapt=1 / b_bias=0 / direct=3 / weightb=1 / open_gop=0 / weightp=2 / keyint=250 / keyint_min=23 / scenecut=40 / intra_refresh=0 / rc_lookahead=50 / rc=2pass / mbtree=1 / bitrate=8945 / ratetol=1.0 / qcomp=0.60 / qpmin=0 / qpmax=69 / qpstep=4 / cplxblur=20.0 / qblur=0.5 / ip_ratio=1.40 / aq=1:1.00
  25. Language                                 : English
  26. Default                                  : Yes
  27. Forced                                   : No

  28. Audio
  29. ID                                       : 2
  30. Format                                   : DTS
  31. Format/Info                              : Digital Theater Systems
  32. Codec ID                                 : A_DTS
  33. Duration                                 : 1 h 29 min
  34. Bit rate mode                            : Constant
  35. Bit rate                                 : 1 509 kb/s
  36. Channel(s)                               : 6 channels
  37. Channel layout                           : C L R Ls Rs LFE
  38. Sampling rate                            : 48.0 kHz
  39. Frame rate                               : 93.750 FPS (512 SPF)
  40. Bit depth                                : 24 bits
  41. Compression mode                         : Lossy
  42. Stream size                              : 969 MiB (14%)
  43. Title                                    : dts
  44. Language                                 : English
  45. Default                                  : Yes
  46. Forced                                   : No

  47. Menu
  48. 00:00:00.000                             : en:00:00:00.000
  49. 00:06:45.989                             : en:00:06:45.989
  50. 00:13:04.200                             : en:00:13:04.200
  51. 00:21:03.554                             : en:00:21:03.554
  52. 00:30:10.225                             : en:00:30:10.225
  53. 00:37:53.938                             : en:00:37:53.938
  54. 00:45:58.422                             : en:00:45:58.422
  55. 00:52:16.050                             : en:00:52:16.050
  56. 01:02:10.060                             : en:01:02:10.060
  57. 01:10:29.225                             : en:01:10:29.225
  58. 01:16:19.033                             : en:01:16:19.033
  59. 01:21:28.634                             : en:01:21:28.634
复制代码

小小驯鹿艾略特 Elliot.The.Littlest.Reindeer.2018.1080p.BluRay.x264-GETiT 6.54GB-2.png







VIP会员免费任意下载本站所有资源!---点击开通
回复

使用道具 举报

级别:一举成名 Lv.7

注册时间
2019-4-24
最后登录
2019-11-14
听众
13
收听
0
主题
0
蓝光币
194 枚
贡献
0 点
发表于 7 天前 | 显示全部楼层
楼主发贴辛苦了,谢谢楼主分享!我觉得中国高清电影网是注册对了!
VIP会员免费任意下载本站所有资源!---点击开通
回复

使用道具 举报

懒得打字嘛,点击右侧快捷回复 【右侧内容,后台自定义】
您需要登录后才可以回帖 登录 | 立即注册

本版积分规则

QQ|Archiver|手机版|小黑屋| 中国高清网 |网站地图 

GMT+8, 2019-11-15 07:54 , Processed in 0.223918 second(s), 37 queries .

Powered by HDchina X3.4

Copyright 2017-2019©HDchina.All right reserved

返回顶部 联系我们