查看: 127|回复: 1

[恐怖片] 套索 Lasso.UNCUT.2017.720p.BluRay.x264-GETiT 4.37GB

[复制链接]

 成长值: 5550

级别:资源管理组

注册时间
2017-10-20
最后登录
2020-6-4
听众
1
收听
0
主题
96338
蓝光币
155181 枚
贡献
20716 点
发表于 2019-11-7 20:57:19 | 显示全部楼层 |阅读模式
套索 Lasso.UNCUT.2017.720p.BluRay.x264-GETiT 4.37GB-1.png
/ ]* h8 e; N9 n  r1 f  D) e! z, `$ p4 b* C$ {) \. h& m: x
译  名 套索% x8 K0 c5 Q5 e
片  名 Lasso( w0 ?1 j; r, S5 z) L& B
年  代 2017
* r7 o4 @, W0 |& ?" b产  地 美国  @, s; B" u9 z+ Q
类  别 可骇* w2 g9 G/ o+ s, ^' b' M1 I7 Y% v, a
语  言 英语* ^# d8 I9 r' Z( K
IMDb评分  4.7/10 from 393 users
" ]! D+ q$ {! p/ h; G; Q* S# i& iIMDb链接  https://www.imdb.com/title/tt5851598) T  ?3 S- A6 y
豆瓣评分 4.4/10 from 79 users
) b& }, v3 o! J: n豆瓣链接 https://movie.douban.com/subject/27092233/
3 S! r! [, G3 Q" }5 Z导  演 Evan Cecil( R; `6 D$ G/ Z6 V
编  剧 Roberto Marinas
# S" W* ]2 d! `& N6 |/ K) x; ~主  演 肖恩·派特里克·弗兰纳里 Sean Patrick Flanery
! r, z: ?3 B+ M( ~/ h. T4 I       琳赛·摩根 Lindsey Morgan
! z4 m7 t& Y$ h) C2 x* T5 M       Andrew Jacobs+ ^- f; x" Q* c) K
4 {" b  [; K1 w# `( V

, f2 R+ g% J5 B$ D- f/ R标  签 可骇 | 惊悚 | 美国 | 暴力 | 弱智 | 虐杀 | 美国可骇 | 美国电影4 x: w( W4 i" @5 q6 I

6 k* ^8 p8 |1 \4 V简  介  8 r; C& N9 h+ j. W4 B  a; j8 q

) l% |( h, r9 G- F& b  Simon and Kit, two young leaders of an Active Senior tour group, out on an adventure to a small-town rodeo festival located deep in the woods. It’s a great experience for the group… until they try to leave.# [! J: i; s0 R5 [. F: R. Q4 N1 g+ q
  1. Video
    : `6 F, w/ ?; U' q  h# p1 C* Z
  2. ID                                       : 1* T& `7 @$ T3 t* Z* v; l! }+ X
  3. Format                                   : AVC
    6 h, h. c' ~, ]# v
  4. Format/Info                              : Advanced Video Codec6 B: H4 d5 M, V; @8 z9 C$ U
  5. Format profile                           : High@L4: Q' V- D) W3 p7 K& ?# [
  6. Format settings                          : CABAC / 5 Ref Frames* r* S$ G& x( t2 w$ M  N4 B. o) e
  7. Format settings, CABAC                   : Yes9 Z" t( ^8 C: Z, e& f) V# a
  8. Format settings, Reference frames        : 5 frames
    ) l! |% b. U" Q/ M4 I
  9. Codec ID                                 : V_MPEG4/ISO/AVC0 W) ]) ^4 d3 z  X
  10. Duration                                 : 1 h 37 min
    0 x4 J7 v5 o- y, s
  11. Bit rate                                 : 4 914 kb/s; A2 r9 a* H* l. Q! e$ [3 z1 i
  12. Width                                    : 1 280 pixels
    0 s2 c  p# N; R1 W
  13. Height                                   : 536 pixels
    ' ~  s' o8 V1 L8 g
  14. Display aspect ratio                     : 2.40:1
    : P9 N+ B. e+ B. L; n
  15. Frame rate mode                          : Constant
    * W# K" `. P5 J/ k
  16. Frame rate                               : 23.976 (24000/1001) FPS0 E1 [+ h3 `% S) U" p# k
  17. Color space                              : YUV$ i9 p  A4 J, s7 m- F- }% D& @
  18. Chroma subsampling                       : 4:2:0
    " n, d6 `- ^' l0 g2 H& j  s) H! C% K
  19. Bit depth                                : 8 bits
    " y: f0 d3 v! J6 }% v% N/ m  l
  20. Scan type                                : Progressive
    1 ^/ S7 P( C5 @0 y( w- x6 t* p' P
  21. Bits/(Pixel*Frame)                       : 0.299
    ! d, c! M* [$ @+ a6 H0 v
  22. Stream size                              : 3.34 GiB (76%)
    % [% {& I/ F, j8 @6 |3 ~
  23. Writing library                          : x264 core 157 r2969 d4099dd/ d1 G; @- `4 X: t6 |0 }" ?4 Z
  24. Encoding settings                        : cabac=1 / ref=5 / deblock=1:0:0 / analyse=0x3:0x133 / me=umh / subme=7 / psy=1 / psy_rd=1.00:0.00 / mixed_ref=1 / me_range=16 / chroma_me=1 / trellis=2 / 8x8dct=1 / cqm=0 / deadzone=21,11 / fast_pskip=0 / chroma_qp_offset=-2 / threads=16 / lookahead_threads=2 / sliced_threads=0 / nr=0 / decimate=1 / interlaced=0 / bluray_compat=0 / constrained_intra=0 / bframes=3 / b_pyramid=2 / b_adapt=1 / b_bias=0 / direct=3 / weightb=1 / open_gop=0 / weightp=2 / keyint=250 / keyint_min=23 / scenecut=40 / intra_refresh=0 / rc_lookahead=50 / rc=2pass / mbtree=1 / bitrate=4914 / ratetol=1.0 / qcomp=0.60 / qpmin=0 / qpmax=69 / qpstep=4 / cplxblur=20.0 / qblur=0.5 / ip_ratio=1.40 / aq=1:1.00- e7 U9 G0 g7 N- [3 e$ f. U6 y
  25. Language                                 : English' N5 _% z: y% F/ g( F9 S. H9 v
  26. Default                                  : Yes* ]& r9 P( X) X# T
  27. Forced                                   : No
    1 z+ k) P/ `9 Y3 P

  28. " H0 S, w* \& a* |& ~2 R
  29. Audio
    - A! ?$ Q- Q5 l7 _& P! ], o1 b
  30. ID                                       : 23 p8 Y+ H1 e+ h6 y
  31. Format                                   : DTS8 s( c6 D+ z# t6 K2 b
  32. Format/Info                              : Digital Theater Systems
    ( ^& y- N8 `* f
  33. Codec ID                                 : A_DTS0 G& [& y4 W$ x) k5 l  H9 E
  34. Duration                                 : 1 h 37 min
    ) S( h" z, i- B8 @* ~2 C
  35. Bit rate mode                            : Constant
    $ l* S4 e% S# [" g8 X: w
  36. Bit rate                                 : 1 509 kb/s+ m3 V+ |$ |% d" m5 \
  37. Channel(s)                               : 6 channels) ]: [" }- r- D' T' I
  38. Channel layout                           : C L R Ls Rs LFE
    ; g! E; M' \, ~4 O! J
  39. Sampling rate                            : 48.0 kHz) N: M1 W+ B( B: K# V5 }
  40. Frame rate                               : 93.750 FPS (512 SPF)0 J; ]( o0 ?" |6 z9 g/ v
  41. Bit depth                                : 24 bits
    # A  w& ~4 _# L8 t
  42. Compression mode                         : Lossy
    4 W& B! k) s5 b' P
  43. Stream size                              : 1.03 GiB (23%)
    1 C6 \% t" Y0 e1 V
  44. Title                                    : dts
    " V# x3 j. H6 ?2 l# @
  45. Language                                 : English
      w, b4 r! [9 d( c
  46. Default                                  : Yes
    4 r) w  ^+ c! m. |: f3 d
  47. Forced                                   : No
    # J1 f; P8 @& T& v2 P

  48. 1 j" g- a8 C' U+ f3 X; u  u6 ^
  49. Menu' o4 |  j  f  S; P& O4 q" d
  50. 00:00:00.000                             : en:00:00:00.0008 F6 R. N/ N- B. U9 w7 I7 l* s
  51. 00:02:14.760                             : en:00:02:14.760
    & e! N4 D& ~% J, w8 p
  52. 00:12:05.224                             : en:00:12:05.224
    # Y5 i; s: f# |% Z$ |: T) W1 f
  53. 00:22:39.900                             : en:00:22:39.9005 r+ `6 Q* R# o- F3 G7 f: L
  54. 00:29:42.364                             : en:00:29:42.364
    1 @1 F  G0 `9 [" f/ `; @' c2 B
  55. 00:36:23.723                             : en:00:36:23.723
    - Y  T) B3 h6 v, ?
  56. 00:42:30.381                             : en:00:42:30.381
    % f2 `) u3 K! o- n
  57. 00:48:02.296                             : en:00:48:02.296- c6 C; Q. V& Z2 q" |% m% r( l$ K' k
  58. 01:01:31.104                             : en:01:01:31.1049 t% e) g  O' a% I+ I
  59. 01:11:47.929                             : en:01:11:47.929
    : F; e! l; {: R- b
  60. 01:22:41.290                             : en:01:22:41.290( x9 o3 G  t% k# X
  61. 01:32:40.180                             : en:01:32:40.180
复制代码

6 g3 t- }+ R2 j1 n 205623jax92qqgzaxzwwv6.png
7 G0 k  D, O% H* F( A3 ]  L4 u, R7 {: u9 x; J# e) B/ z
5 ^% j! M/ x6 K7 G  g

* F& I  p2 f2 |7 @5 v* G0 g3 {) V6 s5 U' O, B3 J4 o9 a) S
- z. K1 n" G& S  o" k7 ?
# X( h( f( k! V! F& z$ G* X

" _8 Q4 T- e7 ^2 b8 ~$ f* q
回复

使用道具 举报

级别:功成名就 Lv.9

注册时间
2019-4-24
最后登录
2020-6-3
听众
14
收听
0
主题
0
蓝光币
541 枚
贡献
0 点
发表于 2019-11-8 10:47:38 | 显示全部楼层
楼主发贴辛苦了,谢谢楼主分享!我觉得中国高清电影网是注册对了!
回复

使用道具 举报

懒得打字嘛,点击右侧快捷回复 【右侧内容,后台自定义】
您需要登录后才可以回帖 登录 | 立即注册

本版积分规则

Archiver|手机版|小黑屋| 中国高清网 ( ICP备17007870号-2 ) |网站地图 

GMT+8, 2020-6-5 04:56 , Processed in 0.144494 second(s), 38 queries .

Powered by HDchina X3.4

Copyright 2017-2019©HDchina.All right reserved

返回顶部 联系我们