查看: 45|回复: 1

[恐怖片] 套索 Lasso.UNCUT.2017.720p.BluRay.x264-GETiT 4.37GB

[复制链接]

 成长值: 3160

级别:资源管理组

注册时间
2017-10-20
最后登录
2019-11-15
听众
1
收听
0
主题
86787
蓝光币
61950 枚
贡献
11145 点
发表于 2019-11-7 20:57:19 | 显示全部楼层 |阅读模式
套索 Lasso.UNCUT.2017.720p.BluRay.x264-GETiT 4.37GB-1.png
; L, Q% z" C- J: q* _* ?) Z: f6 K0 \- K; x# O0 c! t. R( ]
译  名 套索
( n$ a! r# O1 Z% z( S片  名 Lasso# L$ H! k8 |3 T
年  代 20178 G+ Z5 @9 z5 V$ j# A4 h) Z
产  地 美国
7 b6 K& I7 N/ a( u7 ]0 n类  别 可骇
( s( o1 M; P6 J* ~% K语  言 英语. T7 t7 F7 D, F! L2 \
IMDb评分  4.7/10 from 393 users
- o) u! A0 F6 @* CIMDb链接  https://www.imdb.com/title/tt58515984 U7 @- e' _" A
豆瓣评分 4.4/10 from 79 users% Q- m" }$ F7 ~6 [
豆瓣链接 https://movie.douban.com/subject/27092233/
: w* Q( d7 z% o0 Z3 q% Z& q$ B* f导  演 Evan Cecil
+ K$ U2 Z- E3 y, m% @$ H# x编  剧 Roberto Marinas
' N; c$ d( b( p- @8 E主  演 肖恩·派特里克·弗兰纳里 Sean Patrick Flanery
' ~8 e, r" B6 t) U* p$ k       琳赛·摩根 Lindsey Morgan
% d: A& w$ `( _  |* C       Andrew Jacobs
6 y9 R" U, G2 H; w) A5 |/ `, p- k7 Q! M8 v9 N

# `% a* ?0 Z) G: U  }; @8 |. E标  签 可骇 | 惊悚 | 美国 | 暴力 | 弱智 | 虐杀 | 美国可骇 | 美国电影
$ J1 A" o7 |. Z9 ^' R# j! Y, q: U8 j$ l
简  介  ; V6 c, A6 m1 z' F# U

# E( N9 m) M7 r8 d/ U" g5 Y8 f! }  Simon and Kit, two young leaders of an Active Senior tour group, out on an adventure to a small-town rodeo festival located deep in the woods. It’s a great experience for the group… until they try to leave.. m5 x- R0 ~& \1 M
  1. Video' d# D& A9 u& v6 q; E( q, W# A$ g
  2. ID                                       : 1
    6 Y& f) e( G0 j0 g, q$ _: g7 }6 B
  3. Format                                   : AVC
    . |4 L( I% ~8 H" _
  4. Format/Info                              : Advanced Video Codec
    0 i: }1 I- [7 G% |
  5. Format profile                           : High@L4
    * _7 L. v8 ~( N: i5 P+ M9 B( Q
  6. Format settings                          : CABAC / 5 Ref Frames' w0 }1 b- A* W( J
  7. Format settings, CABAC                   : Yes
    6 k: J; V9 r% D7 b2 C: O8 Y
  8. Format settings, Reference frames        : 5 frames
    : c. T1 M7 }5 b2 F, j6 E! [# q
  9. Codec ID                                 : V_MPEG4/ISO/AVC$ [, Q2 z: N0 X+ Y+ x
  10. Duration                                 : 1 h 37 min7 ]% C$ B, R8 ^
  11. Bit rate                                 : 4 914 kb/s! G* @# Q- H, }$ S/ D2 C0 W0 y$ G
  12. Width                                    : 1 280 pixels- |4 n' i) }7 R) G: j
  13. Height                                   : 536 pixels; k+ G3 q( ]1 l. O9 j
  14. Display aspect ratio                     : 2.40:1
    - Y8 w( R0 X7 ?# a( L+ S
  15. Frame rate mode                          : Constant
    * N  m3 _+ Q: @. l+ X+ w% {, X/ i
  16. Frame rate                               : 23.976 (24000/1001) FPS2 l) E# Z7 Z0 `0 I6 V
  17. Color space                              : YUV
    * t( U' m0 f! i& I% |
  18. Chroma subsampling                       : 4:2:0- u6 o/ D7 c/ u& q
  19. Bit depth                                : 8 bits
    5 r/ x+ |8 J3 u' K/ w9 }% i7 X
  20. Scan type                                : Progressive/ M2 b. g; n: W, E, _7 P  \
  21. Bits/(Pixel*Frame)                       : 0.299: U5 [+ }3 f* I* g% c
  22. Stream size                              : 3.34 GiB (76%); |* Y& H( _; |7 L: |& H! O
  23. Writing library                          : x264 core 157 r2969 d4099dd) e$ U; w4 S1 k- f
  24. Encoding settings                        : cabac=1 / ref=5 / deblock=1:0:0 / analyse=0x3:0x133 / me=umh / subme=7 / psy=1 / psy_rd=1.00:0.00 / mixed_ref=1 / me_range=16 / chroma_me=1 / trellis=2 / 8x8dct=1 / cqm=0 / deadzone=21,11 / fast_pskip=0 / chroma_qp_offset=-2 / threads=16 / lookahead_threads=2 / sliced_threads=0 / nr=0 / decimate=1 / interlaced=0 / bluray_compat=0 / constrained_intra=0 / bframes=3 / b_pyramid=2 / b_adapt=1 / b_bias=0 / direct=3 / weightb=1 / open_gop=0 / weightp=2 / keyint=250 / keyint_min=23 / scenecut=40 / intra_refresh=0 / rc_lookahead=50 / rc=2pass / mbtree=1 / bitrate=4914 / ratetol=1.0 / qcomp=0.60 / qpmin=0 / qpmax=69 / qpstep=4 / cplxblur=20.0 / qblur=0.5 / ip_ratio=1.40 / aq=1:1.00
    # n; H0 D* E: a! S; Z4 t/ O! m
  25. Language                                 : English  J" [: z0 _' Q' ]! R
  26. Default                                  : Yes+ I8 q% r: m+ i* g* |. a- J2 u
  27. Forced                                   : No: C/ ^7 R/ Y# P0 T* F2 \7 {$ D. @
  28. 3 _7 ~8 G+ w( ]* v1 h0 V) Y8 J9 I
  29. Audio; S5 d5 |* l/ O# \4 X: F
  30. ID                                       : 2$ v# w, b, k% W4 p9 g
  31. Format                                   : DTS
    . B" L+ H0 U5 [/ X
  32. Format/Info                              : Digital Theater Systems$ B& y1 @- \" U3 c4 J2 d
  33. Codec ID                                 : A_DTS3 d$ x! U3 ^: ~3 h
  34. Duration                                 : 1 h 37 min
    % X; L, G8 f: J  N1 M; T4 }
  35. Bit rate mode                            : Constant
    2 i0 V/ J& s# }( a- P* E
  36. Bit rate                                 : 1 509 kb/s
    ! q* s1 g8 I8 }$ I, {4 _5 q1 g
  37. Channel(s)                               : 6 channels
    $ F0 Y$ O1 g& c' U0 }
  38. Channel layout                           : C L R Ls Rs LFE% W4 T0 G# q4 W7 l$ I* B' o
  39. Sampling rate                            : 48.0 kHz; D" Y2 C+ q* p* a+ h7 C
  40. Frame rate                               : 93.750 FPS (512 SPF)
    " k$ c9 f) ]0 j  ]
  41. Bit depth                                : 24 bits
    : K! @  A+ d; V8 k3 j
  42. Compression mode                         : Lossy4 t0 R- [/ j: O4 n4 G
  43. Stream size                              : 1.03 GiB (23%)
    1 |2 @# Z" A% B" A% M6 ]' i
  44. Title                                    : dts$ o  x, @7 p( ?3 W" v: R8 r
  45. Language                                 : English: T3 d" r3 O& d
  46. Default                                  : Yes
    / t! c2 x8 {/ k8 z  g4 T& X
  47. Forced                                   : No
      H5 e9 d, E$ ]
  48. ' e: Z- z# r/ f' k
  49. Menu$ h5 ~2 e, S4 \& o% ~
  50. 00:00:00.000                             : en:00:00:00.000( k7 \/ [% Q1 v
  51. 00:02:14.760                             : en:00:02:14.760* w/ p4 ^$ U  p
  52. 00:12:05.224                             : en:00:12:05.224" S9 b8 x, H9 G8 p$ H' u( [% E9 G
  53. 00:22:39.900                             : en:00:22:39.900
    - t. G( I. o. O( ]5 V: m6 q9 {/ n
  54. 00:29:42.364                             : en:00:29:42.364
    8 t% s  [0 Q; S% M& n
  55. 00:36:23.723                             : en:00:36:23.723
    8 O  ?; {& R* J! i
  56. 00:42:30.381                             : en:00:42:30.381
    ' h9 }/ P2 L' F- I
  57. 00:48:02.296                             : en:00:48:02.296
    1 x- e8 G. D* H+ Q
  58. 01:01:31.104                             : en:01:01:31.1041 m- g1 R- t* v4 U
  59. 01:11:47.929                             : en:01:11:47.9293 n7 K: G& J9 j
  60. 01:22:41.290                             : en:01:22:41.2908 z2 L7 o; `2 {; U- s& [: ~
  61. 01:32:40.180                             : en:01:32:40.180
复制代码

+ ?" |; @5 O: {) E- h 205623jax92qqgzaxzwwv6.png
& W" v" H3 S9 k! N9 F9 h7 P# f6 X/ n" ~+ t) A5 X
7 Z) d9 H7 U' P
, d) k; @5 O; v2 M* {7 \- c

0 r4 T4 u' Q7 W+ f# M7 E4 }  k9 u( u9 z$ K' d3 u

  x% A% H9 {# B8 X, f) f' ^5 D" n" d) u
VIP会员免费任意下载本站所有资源!---点击开通
回复

使用道具 举报

级别:一举成名 Lv.7

注册时间
2019-4-24
最后登录
2019-11-14
听众
13
收听
0
主题
0
蓝光币
194 枚
贡献
0 点
发表于 7 天前 | 显示全部楼层
楼主发贴辛苦了,谢谢楼主分享!我觉得中国高清电影网是注册对了!
VIP会员免费任意下载本站所有资源!---点击开通
回复

使用道具 举报

懒得打字嘛,点击右侧快捷回复 【右侧内容,后台自定义】
您需要登录后才可以回帖 登录 | 立即注册

本版积分规则

QQ|Archiver|手机版|小黑屋| 中国高清网 |网站地图 

GMT+8, 2019-11-15 20:47 , Processed in 0.230044 second(s), 37 queries .

Powered by HDchina X3.4

Copyright 2017-2019©HDchina.All right reserved

返回顶部 联系我们