查看: 58|回复: 3

[喜剧片] 好小子们/好小子 Good.Boys.2019.1080p.BluRay.x264.DTS-HD.MA.5.1-FGT 7.81GB

[复制链接]

 成长值: 3160

级别:资源管理组

注册时间
2017-10-20
最后登录
2019-11-15
听众
1
收听
0
主题
86768
蓝光币
61946 枚
贡献
11126 点
发表于 2019-11-7 20:55:24 | 显示全部楼层 |阅读模式
205447wfianiajaaj8hmby.png

译  名 好小子们 / 好小子 / 好小男孩(台) / 好男孩 / 好男孩们 / 曳曳同学会(港)
片  名 Good Boys
年  代 2019
产  地 美国
类  别 笑剧 / 冒险
语  言 英语
上映日期 2019-08-16(美国)
IMDb评分  6.8/10 from 16367 users
IMDb链接  https://www.imdb.com/title/tt7343762
豆瓣评分 7.5/10 from 1005 users
豆瓣链接 https://movie.douban.com/subject/27115166/
片  长 90分钟
导  演 吉恩·斯图普尼兹基 Gene Stupnitsky
编  剧 李·艾森伯格 Lee Eisenberg / 吉恩·斯图普尼兹基 Gene Stupnitsky
主  演 雅各布·特伦布莱 Jacob Tremblay
       基思·L·威廉姆斯 Keith L. Williams
       布雷迪·诺恩 Brady Noon
       莫莉·戈登 Molly Gordon
       米多莉·弗朗西斯 Midori Francis
       米莉·戴维斯 Millie Davis
       乔希·卡拉斯 Josh Caras
       威尔·福特 Will Forte
       里尔·莱尔·哈瓦瑞 Lil Rel Howery
       瑞塔 Retta
       麦可拉·沃金丝 Michaela Watkins
       钱斯·赫斯菲尔德 Chance Hurstfield
       伊妮德·雷伊·亚当斯 Enid-Raye Adams
       克雷格·哈斯 Craig Haas
       山姆·理查森 Sam Richardson
       贝妮塔·夏 Benita Ha
       亚历山大·卡尔弗特 Alexander Calvert
       玛雅·斯泰斯-史姑娘 Maja Stace-Smith
       马特·埃利斯 Matt Ellis
       玛莉·格雷斯·贝克尔 Marlee Grace Becker
       丽娜·伦纳 Lina Renna
       奥黛丽·斯莫尔曼 Audrey Smallman
       保罗·贝克 Paul Becker
       李·艾森伯格 Lee Eisenberg


标  签 笑剧 | 美国 | 2019 | 搞笑 | 儿童 | R | 青春 | 长大

简  介  

  影片围绕着四个12岁叛逆男孩展开,他们想要在怙恃回家前从洛杉矶郊区前往市中心换掉被摔坏的无人机。
  1. Video
  2. ID                                       : 1
  3. Format                                   : AVC
  4. Format/Info                              : Advanced Video Codec
  5. Format profile                           : High@L4
  6. Format settings                          : CABAC / 5 Ref Frames
  7. Format settings, CABAC                   : Yes
  8. Format settings, Reference frames        : 5 frames
  9. Codec ID                                 : V_MPEG4/ISO/AVC
  10. Duration                                 : 1 h 29 min
  11. Bit rate                                 : 8 965 kb/s
  12. Width                                    : 1 920 pixels
  13. Height                                   : 808 pixels
  14. Display aspect ratio                     : 2.40:1
  15. Frame rate mode                          : Constant
  16. Frame rate                               : 23.976 (24000/1001) FPS
  17. Color space                              : YUV
  18. Chroma subsampling                       : 4:2:0
  19. Bit depth                                : 8 bits
  20. Scan type                                : Progressive
  21. Bits/(Pixel*Frame)                       : 0.241
  22. Stream size                              : 5.61 GiB (72%)
  23. Title                                    : Good.Boys.2019.1080p.BluRay.x264.DTS-HD.MA.5.1-FGT
  24. Writing library                          : x264 core 158 r2984 3759fcb
  25. Encoding settings                        : cabac=1 / ref=5 / deblock=1:-3:-3 / analyse=0x3:0x113 / me=umh / subme=8 / psy=1 / psy_rd=1.00:0.00 / mixed_ref=1 / me_range=16 / chroma_me=1 / trellis=1 / 8x8dct=1 / cqm=0 / deadzone=21,11 / fast_pskip=1 / chroma_qp_offset=-2 / threads=25 / lookahead_threads=4 / sliced_threads=0 / nr=0 / decimate=1 / interlaced=0 / bluray_compat=0 / constrained_intra=0 / bframes=3 / b_pyramid=2 / b_adapt=1 / b_bias=0 / direct=3 / weightb=1 / open_gop=0 / weightp=2 / keyint=250 / keyint_min=23 / scenecut=40 / intra_refresh=0 / rc_lookahead=50 / rc=2pass / mbtree=1 / bitrate=8965 / ratetol=1.0 / qcomp=0.60 / qpmin=0 / qpmax=69 / qpstep=4 / cplxblur=20.0 / qblur=0.5 / ip_ratio=1.40 / aq=1:1.00
  26. Language                                 : English
  27. Default                                  : Yes
  28. Forced                                   : No

  29. Audio
  30. ID                                       : 2
  31. Format                                   : DTS XLL
  32. Format/Info                              : Digital Theater Systems
  33. Commercial name                          : DTS-HD Master Audio
  34. Codec ID                                 : A_DTS
  35. Duration                                 : 1 h 29 min
  36. Bit rate mode                            : Variable
  37. Bit rate                                 : 3 425 kb/s
  38. Channel(s)                               : 6 channels
  39. Channel layout                           : C L R Ls Rs LFE
  40. Sampling rate                            : 48.0 kHz
  41. Frame rate                               : 93.750 FPS (512 SPF)
  42. Bit depth                                : 24 bits
  43. Compression mode                         : Lossless
  44. Stream size                              : 2.14 GiB (27%)
  45. Title                                    : Good.Boys.2019.1080p.BluRay.x264.DTS-HD.MA.5.1-FGT
  46. Language                                 : English
  47. Default                                  : Yes
  48. Forced                                   : No

  49. Text #1
  50. ID                                       : 3
  51. Format                                   : UTF-8
  52. Codec ID                                 : S_TEXT/UTF8
  53. Codec ID/Info                            : UTF-8 Plain Text
  54. Duration                                 : 1 h 22 min
  55. Bit rate                                 : 78 b/s
  56. Count of elements                        : 1492
  57. Stream size                              : 46.9 KiB (0%)
  58. Title                                    : English-SRT
  59. Language                                 : English
  60. Default                                  : Yes
  61. Forced                                   : No

  62. Text #2
  63. ID                                       : 4
  64. Format                                   : PGS
  65. Muxing mode                              : zlib
  66. Codec ID                                 : S_HDMV/PGS
  67. Codec ID/Info                            : Picture based subtitle format used on BDs/HD-DVDs
  68. Duration                                 : 1 h 22 min
  69. Bit rate                                 : 65.4 kb/s
  70. Count of elements                        : 3415
  71. Stream size                              : 38.7 MiB (0%)
  72. Title                                    : English-PGS
  73. Language                                 : English
  74. Default                                  : No
  75. Forced                                   : No

  76. Text #3
  77. ID                                       : 5
  78. Format                                   : PGS
  79. Muxing mode                              : zlib
  80. Codec ID                                 : S_HDMV/PGS
  81. Codec ID/Info                            : Picture based subtitle format used on BDs/HD-DVDs
  82. Duration                                 : 1 h 28 min
  83. Bit rate                                 : 52.2 kb/s
  84. Count of elements                        : 2906
  85. Stream size                              : 33.0 MiB (0%)
  86. Title                                    : Spanish-PGS
  87. Language                                 : Spanish
  88. Default                                  : No
  89. Forced                                   : No

  90. Text #4
  91. ID                                       : 6
  92. Format                                   : PGS
  93. Muxing mode                              : zlib
  94. Codec ID                                 : S_HDMV/PGS
  95. Codec ID/Info                            : Picture based subtitle format used on BDs/HD-DVDs
  96. Duration                                 : 1 h 28 min
  97. Bit rate                                 : 54.0 kb/s
  98. Count of elements                        : 2900
  99. Stream size                              : 34.1 MiB (0%)
  100. Title                                    : French-PGS
  101. Language                                 : French
  102. Default                                  : No
  103. Forced                                   : No

  104. Text #5
  105. ID                                       : 7
  106. Format                                   : PGS
  107. Muxing mode                              : zlib
  108. Codec ID                                 : S_HDMV/PGS
  109. Codec ID/Info                            : Picture based subtitle format used on BDs/HD-DVDs
  110. Duration                                 : 1 h 15 min
  111. Bit rate                                 : 214 b/s
  112. Count of elements                        : 18
  113. Stream size                              : 119 KiB (0%)
  114. Title                                    : Spanish-FORCED-PGS
  115. Language                                 : Spanish
  116. Default                                  : No
  117. Forced                                   : No

  118. Text #6
  119. ID                                       : 8
  120. Format                                   : PGS
  121. Muxing mode                              : zlib
  122. Codec ID                                 : S_HDMV/PGS
  123. Codec ID/Info                            : Picture based subtitle format used on BDs/HD-DVDs
  124. Duration                                 : 1 h 28 min
  125. Bit rate                                 : 411 b/s
  126. Count of elements                        : 36
  127. Stream size                              : 266 KiB (0%)
  128. Title                                    : French-FORCED-PGS
  129. Language                                 : French
  130. Default                                  : No
  131. Forced                                   : No

  132. Menu
  133. 00:00:00.000                             : en:Chapter 01
  134. 00:03:54.025                             : en:Chapter 02
  135. 00:09:00.164                             : en:Chapter 03
  136. 00:11:51.168                             : en:Chapter 04
  137. 00:15:08.657                             : en:Chapter 05
  138. 00:17:29.840                             : en:Chapter 06
  139. 00:21:20.696                             : en:Chapter 07
  140. 00:27:27.687                             : en:Chapter 08
  141. 00:31:25.675                             : en:Chapter 09
  142. 00:35:06.104                             : en:Chapter 10
  143. 00:40:11.867                             : en:Chapter 11
  144. 00:47:16.208                             : en:Chapter 12
  145. 00:51:01.183                             : en:Chapter 13
  146. 00:57:54.387                             : en:Chapter 14
  147. 01:02:27.952                             : en:Chapter 15
  148. 01:06:46.544                             : en:Chapter 16
  149. 01:09:56.901                             : en:Chapter 17
  150. 01:14:19.204                             : en:Chapter 18
  151. 01:20:00.796                             : en:Chapter 19
  152. 01:23:35.427                             : en:Chapter 20
复制代码

好小子们/好小子 Good.Boys.2019.1080p.BluRay.x264.DTS-HD.MA.5.1-FGT 7.81GB-2.png 好小子们/好小子 Good.Boys.2019.1080p.BluRay.x264.DTS-HD.MA.5.1-FGT 7.81GB-3.png 好小子们/好小子 Good.Boys.2019.1080p.BluRay.x264.DTS-HD.MA.5.1-FGT 7.81GB-4.png







VIP会员免费任意下载本站所有资源!---点击开通
回复

使用道具 举报

级别:一举成名 Lv.7

注册时间
2019-4-24
最后登录
2019-11-14
听众
13
收听
0
主题
0
蓝光币
194 枚
贡献
0 点
发表于 7 天前 | 显示全部楼层
楼主发贴辛苦了,谢谢楼主分享!我觉得中国高清电影网是注册对了!
VIP会员免费任意下载本站所有资源!---点击开通
回复

使用道具 举报

级别:普通观众 Lv.2

注册时间
2019-2-14
最后登录
2019-11-15
听众
12
收听
0
主题
0
蓝光币
10 枚
贡献
0 点
发表于 3 天前 | 显示全部楼层
这是什么意思?
您的连接不是私密连接
攻击者可能会试图从 data.hdchina.net 窃取您的信息(例如:密码、通讯内容或信用卡信息)。了解详情
NET::ERR_CERT_COMMON_NAME_INVALID

将您访问的部分网页的网址、有限的系统信息以及部分网页内容发送给 Google,以帮助我们提升 Chrome 的安全性。隐私权政策
VIP会员免费任意下载本站所有资源!---点击开通
回复

使用道具 举报

级别:群众演员 Lv.3

注册时间
2018-6-19
最后登录
2019-11-15
听众
13
收听
0
主题
0
蓝光币
50 枚
贡献
0 点
发表于 7 小时前 | 显示全部楼层
一人高的树 发表于 2019-11-12 10:06
这是什么意思?
您的连接不是私密连接
攻击者可能会试图从 data.hdchina.net 窃取您的信息(例如:密码、通 ...

换个浏览器吧,用的edge吧?
VIP会员免费任意下载本站所有资源!---点击开通
回复

使用道具 举报

懒得打字嘛,点击右侧快捷回复 【右侧内容,后台自定义】
您需要登录后才可以回帖 登录 | 立即注册

本版积分规则

QQ|Archiver|手机版|小黑屋| 中国高清网 |网站地图 

GMT+8, 2019-11-15 20:11 , Processed in 0.269872 second(s), 37 queries .

Powered by HDchina X3.4

Copyright 2017-2019©HDchina.All right reserved

返回顶部 联系我们