查看: 54|回复: 1

[剧情片] 橄榄树下的情人 Through.the.Olive.Trees.1994.1080p.BluRay.x264-GHOULS 7.66GB

[复制链接]

 成长值: 3230

级别:资源管理组

注册时间
2017-10-20
最后登录
2019-11-21
听众
1
收听
0
主题
87390
蓝光币
63614 枚
贡献
11749 点
发表于 2019-11-7 20:51:39 | 显示全部楼层 |阅读模式
橄榄树下的情人 Through.the.Olive.Trees.1994.1080p.BluRay.x264-GHOULS 7.66GB-1.png

译  名 橄榄树下的情人 / Through The Olive Trees / Zire darakhatan zeyton / 穿越橄榄树林
片  名 ??? ?????? ?????
年  代 1994
产  地 伊朗 / 法国
类  别 剧情
语  言 波斯语
上映日期 1994-02-01(伊朗曙光旬电影节)
IMDb评分  7.8/10 from 5108 users
IMDb链接  https://www.imdb.com/title/tt0111845
豆瓣评分 8.3/10 from 6814 users
豆瓣链接 https://movie.douban.com/subject/1303465/
片  长 103 分钟
导  演 阿巴斯·基亚罗斯塔米 Abbas Kiarostami
编  剧 阿巴斯·基亚罗斯塔米 Abbas Kiarostami / 哈罗德·曼宁 Harold Manning / Hengameh Panahi
主  演 默罕默德·阿里·科沙瓦兹 Mohamad Ali Keshavarz
       Farhad Kheradmand
       Zarifeh Shiva
       Hossein Rezai
       Tahereh Ladanian
       Hocine Redai
       Zahra Nourouzi
       Nosrat Bagheri
       Azim Aziz Nia
       Ostadvali Babaei
       N. Boursadiki
       Khodabakhsh Defaei
       Ahmed Ahmed Poor
       Babek Ahmed Poor
       Mahbanou Darabi
       贾法·帕纳西 Jafar Panahi


标  签 伊朗 | 阿巴斯 | 伊朗电影 | 恋爱 | 橄榄树下的情人 | 法国 | AbbasKiarostami | 1994

简  介  

  地震事后,一支摄制组来到某个山村预备拍摄影片,导演(默罕默德·阿里·科沙瓦兹 Mohamad Ali Keshavarz 饰)决议自始自终启用非职业演员。偶合的是,饰演男配角的侯赛因(Hossein Rezai 饰)暗恋女配角塔赫莉(Tahereh Ladanian 饰 )很久。侯赛因身世清贫,形单影只;塔赫莉则家境优渥,受过杰出的教育。由于彼其间的庞大不同,侯赛因的恋爱始终未能开花成果。不外,地震摧毁了塔赫莉的一切,她的家境和侯赛因相差无几。借着拍戏的机遇,侯赛因向爱人展开大胆的追求……
  本片荣获1994年芝加哥国际电影节最好影片奖、1995年新加坡国际电影节最好导演奖、1994年圣保罗国际电影节影评人奖。

获奖情况  

  第47届戛纳电影节(1994)
  主比赛单元 金棕榈奖(提名) 阿巴斯·基亚罗斯塔米

  第8届新加坡国际电影节(1995)
  银屏奖 最好导演 阿巴斯·基亚罗斯塔米
  1. Video
  2. ID                                       : 1
  3. Format                                   : AVC
  4. Format/Info                              : Advanced Video Codec
  5. Format profile                           : High@L4
  6. Format settings                          : CABAC / 4 Ref Frames
  7. Format settings, CABAC                   : Yes
  8. Format settings, Reference frames        : 4 frames
  9. Codec ID                                 : V_MPEG4/ISO/AVC
  10. Duration                                 : 1 h 43 min
  11. Bit rate                                 : 9 901 kb/s
  12. Width                                    : 1 808 pixels
  13. Height                                   : 1 080 pixels
  14. Display aspect ratio                     : 5:3
  15. Frame rate mode                          : Constant
  16. Frame rate                               : 23.976 (24000/1001) FPS
  17. Color space                              : YUV
  18. Chroma subsampling                       : 4:2:0
  19. Bit depth                                : 8 bits
  20. Scan type                                : Progressive
  21. Bits/(Pixel*Frame)                       : 0.211
  22. Stream size                              : 7.18 GiB (94%)
  23. Writing library                          : x264 core 158 r2988 7817004
  24. Encoding settings                        : cabac=1 / ref=4 / deblock=1:-3:-3 / analyse=0x3:0x133 / me=umh / subme=9 / psy=1 / psy_rd=1.00:0.00 / mixed_ref=1 / me_range=24 / chroma_me=1 / trellis=1 / 8x8dct=1 / cqm=0 / deadzone=21,11 / fast_pskip=0 / chroma_qp_offset=-2 / threads=24 / lookahead_threads=4 / sliced_threads=0 / nr=0 / decimate=1 / interlaced=0 / bluray_compat=0 / constrained_intra=0 / bframes=8 / b_pyramid=2 / b_adapt=2 / b_bias=0 / direct=3 / weightb=1 / open_gop=0 / weightp=2 / keyint=250 / keyint_min=23 / scenecut=40 / intra_refresh=0 / rc_lookahead=60 / rc=2pass / mbtree=1 / bitrate=9901 / ratetol=1.0 / qcomp=0.60 / qpmin=0 / qpmax=69 / qpstep=4 / cplxblur=20.0 / qblur=0.5 / vbv_maxrate=62500 / vbv_bufsize=78125 / nal_hrd=none / filler=0 / ip_ratio=1.40 / aq=1:1.00
  25. Default                                  : Yes
  26. Forced                                   : No

  27. Audio
  28. ID                                       : 2
  29. Format                                   : FLAC
  30. Format/Info                              : Free Lossless Audio Codec
  31. Codec ID                                 : A_FLAC
  32. Duration                                 : 1 h 43 min
  33. Bit rate mode                            : Variable
  34. Bit rate                                 : 643 kb/s
  35. Channel(s)                               : 1 channel
  36. Channel layout                           : C
  37. Sampling rate                            : 48.0 kHz
  38. Frame rate                               : 10.417 FPS (4608 SPF)
  39. Bit depth                                : 24 bits
  40. Compression mode                         : Lossless
  41. Stream size                              : 477 MiB (6%)
  42. Writing library                          : Lavf58.29.100
  43. Language                                 : Persian
  44. Default                                  : Yes
  45. Forced                                   : No

  46. Text
  47. ID                                       : 3
  48. Format                                   : UTF-8
  49. Codec ID                                 : S_TEXT/UTF8
  50. Codec ID/Info                            : UTF-8 Plain Text
  51. Duration                                 : 1 h 43 min
  52. Bit rate                                 : 53 b/s
  53. Count of elements                        : 1456
  54. Stream size                              : 40.4 KiB (0%)
  55. Language                                 : English
  56. Default                                  : Yes
  57. Forced                                   : No

  58. Menu
  59. 00:00:00.000                             : en:Chapter 01
  60. 00:03:52.274                             : en:Chapter 02
  61. 00:04:50.499                             : en:Chapter 03
  62. 00:08:54.242                             : en:Chapter 04
  63. 00:15:44.777                             : en:Chapter 05
  64. 00:19:46.227                             : en:Chapter 06
  65. 00:25:56.722                             : en:Chapter 07
  66. 00:34:02.165                             : en:Chapter 08
  67. 00:40:51.866                             : en:Chapter 09
  68. 00:46:52.852                             : en:Chapter 10
  69. 00:51:55.029                             : en:Chapter 11
  70. 00:59:57.511                             : en:Chapter 12
  71. 01:04:07.469                             : en:Chapter 13
  72. 01:09:57.276                             : en:Chapter 14
  73. 01:18:33.626                             : en:Chapter 15
  74. 01:22:20.769                             : en:Chapter 16
  75. 01:27:36.626                             : en:Chapter 17
  76. 01:30:53.448                             : en:Chapter 18
  77. 01:37:08.031                             : en:Chapter 19
  78. 01:42:08.456                             : en:Chapter 20
复制代码

橄榄树下的情人 Through.the.Olive.Trees.1994.1080p.BluRay.x264-GHOULS 7.66GB-2.png







VIP会员免费任意下载本站所有资源!---点击开通
回复

使用道具 举报

级别:一举成名 Lv.7

注册时间
2019-4-24
最后登录
2019-11-21
听众
13
收听
0
主题
0
蓝光币
197 枚
贡献
0 点
发表于 2019-11-8 13:38:19 | 显示全部楼层
楼主发贴辛苦了,谢谢楼主分享!我觉得中国高清电影网是注册对了!
VIP会员免费任意下载本站所有资源!---点击开通
回复

使用道具 举报

懒得打字嘛,点击右侧快捷回复 【右侧内容,后台自定义】
您需要登录后才可以回帖 登录 | 立即注册

本版积分规则

QQ|Archiver|手机版|小黑屋| 中国高清网 |网站地图

GMT+8, 2019-11-22 03:07 , Processed in 0.250438 second(s), 37 queries .

Powered by HDchina X3.4

Copyright 2017-2019©HDchina.All right reserved

返回顶部 联系我们