查看: 35|回复: 1

[剧情片] 十只独木舟 Ten.Canoes.2006.PROPER.1080p.BluRay.x264-REGRET 7.66GB

[复制链接]

 成长值: 3210

级别:资源管理组

注册时间
2017-10-20
最后登录
2019-11-20
听众
1
收听
0
主题
87221
蓝光币
63004 枚
贡献
11580 点
发表于 2019-11-7 20:47:27 | 显示全部楼层 |阅读模式
十只独木舟 Ten.Canoes.2006.PROPER.1080p.BluRay.x264-REGRET 7.66GB-1.png

译  名 十只独木舟
片  名 Ten Canoes
年  代 2006
产  地 澳大利亚
类  别 剧情 / 笑剧 / 冒险
语  言 英语 / 土著语
上映日期 2006-06-01
IMDb评分  7.0/10 from 4216 users
IMDb链接  https://www.imdb.com/title/tt0466399
豆瓣评分 6.8/10 from 272 users
豆瓣链接 https://movie.douban.com/subject/1790235/
片  长 Australia: 90 分钟
导  演 Peter Djigirr / Rolf de Heer
编  剧 Rolf de Heer
主  演 Richard Birrinbirrin
       Johnny Buniyira
       Peter Djigirr
       Crusoe Kurddal


标  签 澳大利亚 | 记载片 | 土著人 | 2006 | 澳大利亚电影 | 剧情 | 澳大利亚影片 | 新锐

简  介  

  Ten canoes, three wives, one hundred and fifty spears...trouble

获奖情况  

  第59届戛纳电影节(2006)
  一种关注单元 评审团出格奖 洛夫·德·希尔
  1. Video
  2. ID                                       : 1
  3. Format                                   : AVC
  4. Format/Info                              : Advanced Video Codec
  5. Format profile                           : High@L4
  6. Format settings                          : CABAC / 4 Ref Frames
  7. Format settings, CABAC                   : Yes
  8. Format settings, Reference frames        : 4 frames
  9. Codec ID                                 : V_MPEG4/ISO/AVC
  10. Duration                                 : 1 h 31 min
  11. Bit rate                                 : 9 940 kb/s
  12. Width                                    : 1 920 pixels
  13. Height                                   : 1 080 pixels
  14. Display aspect ratio                     : 16:9
  15. Frame rate mode                          : Constant
  16. Frame rate                               : 23.976 (24000/1001) FPS
  17. Color space                              : YUV
  18. Chroma subsampling                       : 4:2:0
  19. Bit depth                                : 8 bits
  20. Scan type                                : Progressive
  21. Bits/(Pixel*Frame)                       : 0.200
  22. Stream size                              : 6.34 GiB (83%)
  23. Writing library                          : x264 core 158 r2988 7817004
  24. Encoding settings                        : cabac=1 / ref=4 / deblock=1:-3:-3 / analyse=0x3:0x133 / me=umh / subme=9 / psy=1 / psy_rd=1.00:0.00 / mixed_ref=1 / me_range=16 / chroma_me=1 / trellis=2 / 8x8dct=1 / cqm=0 / deadzone=21,11 / fast_pskip=0 / chroma_qp_offset=-2 / threads=24 / lookahead_threads=2 / sliced_threads=0 / nr=0 / decimate=1 / interlaced=0 / bluray_compat=0 / constrained_intra=0 / bframes=3 / b_pyramid=2 / b_adapt=1 / b_bias=0 / direct=3 / weightb=1 / open_gop=0 / weightp=2 / keyint=240 / keyint_min=24 / scenecut=40 / intra_refresh=0 / rc_lookahead=50 / rc=2pass / mbtree=1 / bitrate=9940 / ratetol=1.0 / qcomp=0.60 / qpmin=0 / qpmax=69 / qpstep=4 / cplxblur=20.0 / qblur=0.5 / ip_ratio=1.40 / aq=1:1.00
  25. Language                                 : English
  26. Default                                  : Yes
  27. Forced                                   : No

  28. Audio #1
  29. ID                                       : 2
  30. Format                                   : FLAC
  31. Format/Info                              : Free Lossless Audio Codec
  32. Codec ID                                 : A_FLAC
  33. Duration                                 : 1 h 31 min
  34. Bit rate mode                            : Variable
  35. Bit rate                                 : 1 004 kb/s
  36. Channel(s)                               : 6 channels
  37. Channel layout                           : L R C LFE Ls Rs
  38. Sampling rate                            : 48.0 kHz
  39. Frame rate                               : 11.719 FPS (4096 SPF)
  40. Bit depth                                : 16 bits
  41. Compression mode                         : Lossless
  42. Stream size                              : 657 MiB (8%)
  43. Writing library                          : libFLAC 1.2.1 (UTC 2007-09-17)
  44. Language                                 : English
  45. Default                                  : Yes
  46. Forced                                   : No

  47. Audio #2
  48. ID                                       : 3
  49. Format                                   : FLAC
  50. Format/Info                              : Free Lossless Audio Codec
  51. Codec ID                                 : A_FLAC
  52. Duration                                 : 1 h 31 min
  53. Bit rate mode                            : Variable
  54. Bit rate                                 : 1 045 kb/s
  55. Channel(s)                               : 6 channels
  56. Channel layout                           : L R C LFE Ls Rs
  57. Sampling rate                            : 48.0 kHz
  58. Frame rate                               : 11.719 FPS (4096 SPF)
  59. Bit depth                                : 16 bits
  60. Compression mode                         : Lossless
  61. Stream size                              : 683 MiB (9%)
  62. Title                                    : Aboriginal
  63. Writing library                          : libFLAC 1.2.1 (UTC 2007-09-17)
  64. Default                                  : No
  65. Forced                                   : No

  66. Text #1
  67. ID                                       : 4
  68. Format                                   : UTF-8
  69. Codec ID                                 : S_TEXT/UTF8
  70. Codec ID/Info                            : UTF-8 Plain Text
  71. Duration                                 : 1 h 20 min
  72. Bit rate                                 : 17 b/s
  73. Count of elements                        : 440
  74. Stream size                              : 10.4 KiB (0%)
  75. Title                                    : English Forced
  76. Language                                 : English
  77. Default                                  : Yes
  78. Forced                                   : Yes

  79. Text #2
  80. ID                                       : 5
  81. Format                                   : UTF-8
  82. Codec ID                                 : S_TEXT/UTF8
  83. Codec ID/Info                            : UTF-8 Plain Text
  84. Duration                                 : 1 h 27 min
  85. Bit rate                                 : 52 b/s
  86. Count of elements                        : 898
  87. Stream size                              : 33.2 KiB (0%)
  88. Title                                    : English
  89. Language                                 : English
  90. Default                                  : No
  91. Forced                                   : No

  92. Menu
  93. 00:00:00.000                             : en:00:00:00.000
  94. 00:09:56.429                             : en:00:09:56.429
  95. 00:20:02.243                             : en:00:20:02.243
  96. 00:26:44.728                             : en:00:26:44.728
  97. 00:33:37.641                             : en:00:33:37.641
  98. 00:40:08.656                             : en:00:40:08.656
  99. 00:46:35.501                             : en:00:46:35.501
  100. 00:56:02.734                             : en:00:56:02.734
  101. 01:05:29.968                             : en:01:05:29.968
  102. 01:12:49.991                             : en:01:12:49.991
  103. 01:22:17.224                             : en:01:22:17.224
  104. 01:27:05.011                             : en:01:27:05.011
复制代码

十只独木舟 Ten.Canoes.2006.PROPER.1080p.BluRay.x264-REGRET 7.66GB-2.png







VIP会员免费任意下载本站所有资源!---点击开通
回复

使用道具 举报

级别:一举成名 Lv.7

注册时间
2019-4-24
最后登录
2019-11-19
听众
13
收听
0
主题
0
蓝光币
197 枚
贡献
0 点
发表于 2019-11-8 13:39:07 | 显示全部楼层
楼主发贴辛苦了,谢谢楼主分享!我觉得中国高清电影网是注册对了!
VIP会员免费任意下载本站所有资源!---点击开通
回复

使用道具 举报

懒得打字嘛,点击右侧快捷回复 【右侧内容,后台自定义】
您需要登录后才可以回帖 登录 | 立即注册

本版积分规则

QQ|Archiver|手机版|小黑屋| 中国高清网 |网站地图

GMT+8, 2019-11-20 09:11 , Processed in 0.233687 second(s), 37 queries .

Powered by HDchina X3.4

Copyright 2017-2019©HDchina.All right reserved

返回顶部 联系我们