查看: 11|回复: 0

[喜剧片] 造人计划/让我们怀孕吧 Making.Babies.2018.1080p.AMZN.WEBRip.DDP5.1.x264-NTb 6.06GB

[复制链接]

 成长值: 3230

级别:资源管理组

注册时间
2017-10-20
最后登录
2019-11-21
听众
1
收听
0
主题
87390
蓝光币
63616 枚
贡献
11749 点
发表于 2019-11-7 20:45:43 | 显示全部楼层 |阅读模式
造人计划/让我们怀孕吧 Making.Babies.2018.1080p.AMZN.WEBRip.DDP5.1.x264-NTb 6.06GB-1.png

译  名 造人计划 / 让我们怀孕吧
片  名 Making Babies
年  代 2018
产  地 美国
类  别 笑剧
语  言 英语
上映日期 2018-02-02(圣芭芭拉电影节) / 2019-03-29(美国)
IMDb评分  5.3/10 from 318 users
IMDb链接  http://www.imdb.com/title/tt6644632
豆瓣评分 5.3/10 from 138 users
豆瓣链接 https://movie.douban.com/subject/30465775/
片  长 86分钟
导  演 Josh F. Huber
编  剧 Josh F. Huber
主  演 伊丽莎·库伯 Eliza Coupe
       史蒂夫·豪威 Steve Howey
       小艾德·博格里 Ed Begley Jr.
       格伦妮·海德利 Glenne Headly
       鲍勃·斯蒂芬森 Bob Stephenson
       伊丽莎白·罗德里格斯 Elizabeth Rodriguez
       珍妮弗·拉弗勒 Jennifer Lafleur
       乔恩·戴利 Jon Daly
       Sarah Mahmoodi
       莱尔德·曼辛托斯 Laird Macintosh
       海蒂·加德纳 Heidi Gardner
       Ericka Kreutz
       Ambrit Millhouse
       贾斯汀·斯特里特 Juston Street
       朱莉安娜·甘米兹 Julianna Gamiz
       罗伯特·阿尔茨 Robert Artz
       科迪·肯尼迪 Cody Kennedy
       Ashley Williams


标  签 笑剧 | 美国 | 家庭 | 2018 | 助孕 | 美国电影 | 爆米花片 | 史蒂夫·豪威

简  介  

  凯蒂·凯利和约翰·凯利预备安宁下来生个孩子,可他们用尽了一切方式却始终没法如愿,为了实现这个美好的愿望,他们无所不用其极,却任然承受着不孕不育的疾苦,他们的婚姻也随之承受着终极考验,他们能如愿吗?
  1. Video
  2. ID                                       : 1
  3. Format                                   : AVC
  4. Format/Info                              : Advanced Video Codec
  5. Format profile                           : High@L4
  6. Format settings                          : CABAC / 4 Ref Frames
  7. Format settings, CABAC                   : Yes
  8. Format settings, Reference frames        : 4 frames
  9. Codec ID                                 : V_MPEG4/ISO/AVC
  10. Duration                                 : 1 h 26 min
  11. Bit rate mode                            : Constant
  12. Bit rate                                 : 9 396 kb/s
  13. Nominal bit rate                         : 10 000 kb/s
  14. Width                                    : 1 920 pixels
  15. Height                                   : 1 040 pixels
  16. Display aspect ratio                     : 1.85:1
  17. Frame rate mode                          : Constant
  18. Frame rate                               : 23.976 (24000/1001) FPS
  19. Color space                              : YUV
  20. Chroma subsampling                       : 4:2:0
  21. Bit depth                                : 8 bits
  22. Scan type                                : Progressive
  23. Bits/(Pixel*Frame)                       : 0.196
  24. Stream size                              : 5.67 GiB (94%)
  25. Default                                  : Yes
  26. Forced                                   : No
  27. Color range                              : Limited
  28. Color primaries                          : BT.709
  29. Transfer characteristics                 : BT.709
  30. Matrix coefficients                      : BT.709

  31. Audio
  32. ID                                       : 2
  33. Format                                   : E-AC-3
  34. Format/Info                              : Enhanced AC-3
  35. Commercial name                          : Dolby Digital Plus
  36. Codec ID                                 : A_EAC3
  37. Duration                                 : 1 h 26 min
  38. Bit rate mode                            : Constant
  39. Bit rate                                 : 640 kb/s
  40. Channel(s)                               : 6 channels
  41. Channel layout                           : L R C LFE Ls Rs
  42. Sampling rate                            : 48.0 kHz
  43. Frame rate                               : 31.250 FPS (1536 SPF)
  44. Compression mode                         : Lossy
  45. Stream size                              : 396 MiB (6%)
  46. Language                                 : English
  47. Service kind                             : Complete Main
  48. Default                                  : Yes
  49. Forced                                   : No

  50. Text #1
  51. ID                                       : 3
  52. Format                                   : UTF-8
  53. Codec ID                                 : S_TEXT/UTF8
  54. Codec ID/Info                            : UTF-8 Plain Text
  55. Duration                                 : 1 h 22 min
  56. Bit rate                                 : 97 b/s
  57. Count of elements                        : 1707
  58. Stream size                              : 59.0 KiB (0%)
  59. Language                                 : English
  60. Default                                  : No
  61. Forced                                   : No

  62. Text #2
  63. ID                                       : 4
  64. Format                                   : UTF-8
  65. Codec ID                                 : S_TEXT/UTF8
  66. Codec ID/Info                            : UTF-8 Plain Text
  67. Duration                                 : 1 h 22 min
  68. Bit rate                                 : 101 b/s
  69. Count of elements                        : 1771
  70. Stream size                              : 61.6 KiB (0%)
  71. Title                                    : SDH
  72. Language                                 : English
  73. Default                                  : No
  74. Forced                                   : No
复制代码

造人计划/让我们怀孕吧 Making.Babies.2018.1080p.AMZN.WEBRip.DDP5.1.x264-NTb 6.06GB-2.png 造人计划/让我们怀孕吧 Making.Babies.2018.1080p.AMZN.WEBRip.DDP5.1.x264-NTb 6.06GB-3.png 造人计划/让我们怀孕吧 Making.Babies.2018.1080p.AMZN.WEBRip.DDP5.1.x264-NTb 6.06GB-4.png







VIP会员免费任意下载本站所有资源!---点击开通
回复

使用道具 举报

懒得打字嘛,点击右侧快捷回复 【右侧内容,后台自定义】
您需要登录后才可以回帖 登录 | 立即注册

本版积分规则

QQ|Archiver|手机版|小黑屋| 中国高清网 |网站地图

GMT+8, 2019-11-22 05:59 , Processed in 0.235840 second(s), 37 queries .

Powered by HDchina X3.4

Copyright 2017-2019©HDchina.All right reserved

返回顶部 联系我们