查看: 171|回复: 3

[冒险片] 爱探险的朵拉:消失的黄金城 Dora.and.the.Lost.City.of.Gold.2019.720p.BluRay.x264-DRONES 4.38GB

[复制链接]

 成长值: 5460

级别:资源管理组

注册时间
2017-10-20
最后登录
2020-5-28
听众
1
收听
0
主题
96220
蓝光币
151928 枚
贡献
20598 点
发表于 2019-11-7 20:41:18 | 显示全部楼层 |阅读模式
204035y49dzlcuue9e904e.png
2 z1 n6 d8 S; s# t4 \/ g, u8 N# O: {& o8 V# o" K) \
译  名 爱探险的朵拉:消失的黄金城 / Dora the Explorer / 朵拉与失落的黄金城 / 爱探险的Dora:勇闯黄金迷城(港) / 爱探险的朵拉
* x, L( a' P  h% |7 g4 y# [5 B片  名 Dora and the Lost City of Gold9 N  r) s2 i  N4 E! c0 \' w) n
年  代 2019- N8 p$ V' n% ?  d7 V- t- W
产  地 美国+ p( C" x' m; e; ?( Z
类  别 冒险1 ^+ I2 H% i- }( r3 u
语  言 英语
3 A8 A" W/ _# I! B! u+ g上映日期 2019-08-09(美国)
- l/ C1 K5 ]8 C3 z; x3 N; PIMDb评分  6.1/10 from 6012 users* B; t) n! O  G6 S6 F
IMDb链接  https://www.imdb.com/title/tt7547410' q- M5 K6 h6 e8 y' j
豆瓣评分 5.5/10 from 218 users
0 v" S+ A5 a" ~1 G! m) i, s! r豆瓣链接 https://movie.douban.com/subject/27179713/) {+ B3 n6 B. j6 Q; @% Z0 W0 s2 N1 y
片  长 100分钟0 f' [% k) X2 a3 \4 Y
导  演 詹姆斯·博宾 James Bobin
) e& v/ [- O" N* Y编  剧 马修·罗宾逊 Matthew Robinson / 尼古拉斯·斯托勒 Nicholas Stoller / 克里斯·吉福德 Chris Gifford / 瓦莱丽·沃尔什 Valerie Walsh / 埃里克·韦纳 Eric Weiner / 汤姆·惠勒 Tom Wheeler
5 z1 {, I8 n, S& d0 l主  演 伊莎贝拉·莫奈 Isabela Moner  Q3 \* r0 T5 a  `! k( D# l2 Y! g
       迈克尔·佩纳 Michael Pe?a
* |# r2 n) f% m6 l       本尼西奥·德尔·托罗 Benicio del Toro
1 {% U9 ?( p0 h5 C  E% O       考莉安卡·基尔彻 Q'orianka Kilcher
: H# u, m1 q  N0 o3 y' ]3 i       伊娃·朗格利亚 Eva Longoria
, J3 f- J' d; b; X- r9 c9 K       特穆拉·莫里森 Temuera Morrison% d8 ^+ y  A$ E# N, X$ F+ T
       欧赫尼奥·德尔维斯 Eugenio Derbez3 @  j2 S2 S) {  x' X! n
       玛德琳·麦登 Madeleine Madden
. |, U$ ^; S$ [/ M4 _       艾德里安娜·巴拉扎 Adriana Barraza# D" x' h: j3 t% J2 z
       伊瑟拉·维加 Isela Vega4 H: I5 l) a) D% C9 |* K
       克里斯托弗·卡比 Christopher Kirby# t% y& C) `0 I$ l% q
       尼古拉斯·库姆 Nicholas Coombe
" x8 A! e8 q2 Q" h       布拉登·刘易斯 Braden Lewis
; A$ R8 ?. p5 E& T       杰弗里·沃尔伯格 Jeffrey Wahlberg
' {, [$ d: x0 o' }: o' ^8 M% z5 Y( O$ ~% D; @, \
, g2 y) B3 W5 V+ C
标  签 冒险 | 美国 | 2019 | 爱探险的朵拉 | 奇异 | 魔幻 | 派拉蒙 | 搞笑
8 v5 C7 F8 y4 k3 G$ ?( M# q# i% B! n/ w8 {1 t
简  介  : w5 \$ F. S8 }' a$ B) k

% D- p% @4 ]5 N- P. @# G8 O0 m; |  朵拉和怙恃一向生活在森林中,直到有天她的怙恃决议去寻觅传闻中失落的黄金城,而朵拉则被迫回到都会,与表哥迭戈一家人同住,起头了一段啼笑皆非的高中生活。0 f3 @7 ?% B; q% b) p
  在一次黉舍构造的参观活动中,朵拉和朋友们被奥秘人士绑架,他们被带到了森林深处。回到森林的朵拉,展现出了比其他人更强的保存才能。她率领着小猴布茨,表哥迭戈,奥秘的森林专家和一群毫无田野经历的朋友们起头了一段惊险的冒险旅程。他们不但要在幻化莫测的森林中保存下来,更要从好人手中救出朵拉的怙恃,破解黄金城的奥秘。' V* n* Z2 W7 L1 @3 v
  1. Video. v/ D! A' t" ?% S
  2. ID                                       : 1( N1 P  p0 t* L2 E: D# y5 u7 W
  3. Format                                   : AVC# w* l! d+ R% V0 b: W8 H
  4. Format/Info                              : Advanced Video Codec
    ' Q9 I' y$ O) s8 x+ r' m
  5. Format profile                           : High@L47 \3 {6 _" n8 T( R  r6 P% |! ^
  6. Format settings                          : CABAC / 5 Ref Frames& f! q( j7 t& g. d1 B
  7. Format settings, CABAC                   : Yes- b' s/ q% [( s
  8. Format settings, Reference frames        : 5 frames# V. K" [+ S  P! f
  9. Codec ID                                 : V_MPEG4/ISO/AVC
    / Y* ^; x, C# j! b; f
  10. Duration                                 : 1 h 42 min
    - ?) I- D% `7 X: e
  11. Bit rate                                 : 5 466 kb/s6 a, D' ^0 R5 e7 i" N9 o6 L, X
  12. Width                                    : 1 280 pixels
    " |& r5 ?- x7 S) p
  13. Height                                   : 536 pixels0 H/ x* O! L- |. [9 _  j
  14. Display aspect ratio                     : 2.40:1
    / _7 _9 [6 l2 @+ _, `- D
  15. Frame rate mode                          : Constant
    2 o7 q- s8 A% y( G
  16. Frame rate                               : 23.976 (24000/1001) FPS
    : x/ m7 j! r; p8 f2 T  G; N, c
  17. Color space                              : YUV! S. M7 {5 [  b6 Z. F& p
  18. Chroma subsampling                       : 4:2:0
    4 L, H, J. C. m; [* [, T
  19. Bit depth                                : 8 bits+ l5 m% r) @% x5 t% V% j4 V4 p
  20. Scan type                                : Progressive
    + y6 P( M& r- Q8 w# l
  21. Bits/(Pixel*Frame)                       : 0.332
      L5 }4 n/ ^9 W' d6 I
  22. Stream size                              : 3.91 GiB (89%)& q6 w8 y! Q% u4 @$ \* E6 p
  23. Writing library                          : x264 core 158 r2988 7817004/ R- Q# z# B6 K( I) F4 O5 a& r0 q
  24. Encoding settings                        : cabac=1 / ref=5 / deblock=1:-3:-3 / analyse=0x3:0x113 / me=umh / subme=8 / psy=1 / psy_rd=1.00:0.00 / mixed_ref=1 / me_range=16 / chroma_me=1 / trellis=1 / 8x8dct=1 / cqm=0 / deadzone=21,11 / fast_pskip=1 / chroma_qp_offset=-2 / threads=17 / lookahead_threads=2 / sliced_threads=0 / nr=0 / decimate=1 / interlaced=0 / bluray_compat=0 / constrained_intra=0 / bframes=3 / b_pyramid=2 / b_adapt=1 / b_bias=0 / direct=3 / weightb=1 / open_gop=0 / weightp=2 / keyint=250 / keyint_min=23 / scenecut=40 / intra_refresh=0 / rc_lookahead=50 / rc=2pass / mbtree=1 / bitrate=5466 / ratetol=1.0 / qcomp=0.60 / qpmin=0 / qpmax=69 / qpstep=4 / cplxblur=20.0 / qblur=0.5 / ip_ratio=1.40 / aq=1:1.005 T+ r# ~& W- h
  25. Language                                 : English7 |6 i' C9 O1 _3 x, p8 s
  26. Default                                  : Yes
    & D' c$ _: m4 x5 t7 R5 m. }2 [9 N" P1 e/ A
  27. Forced                                   : No
    / r- l! k5 @% R. I( z* |8 X, B" m

  28. $ e% k% B& ~0 a* f
  29. Audio
    . t7 p' _( Q4 z. A9 s
  30. ID                                       : 2
    , M" K1 q; H2 H4 v
  31. Format                                   : AC-3
    & {+ E# ], _* e  b: \
  32. Format/Info                              : Audio Coding 3
    / x* ?; c5 \3 i( i
  33. Commercial name                          : Dolby Digital
    : S# c# i5 ~: A, b; h! ]
  34. Codec ID                                 : A_AC3
    . ]1 X' v3 a9 Y( @  K
  35. Duration                                 : 1 h 42 min3 e5 a" Z' }- M+ |1 m, u
  36. Bit rate mode                            : Constant
    " H) Q1 q1 N6 \( @
  37. Bit rate                                 : 640 kb/s
    & f9 \# U$ ^( B* T. O9 ]0 {; y8 V# s
  38. Channel(s)                               : 6 channels
    $ ]& E8 `% e$ a
  39. Channel layout                           : L R C LFE Ls Rs/ g* X9 P+ a5 e5 l8 ^( p
  40. Sampling rate                            : 48.0 kHz
    # X% |9 N: n) }' f' i
  41. Frame rate                               : 31.250 FPS (1536 SPF)
    ' u% V+ q9 w( S$ ~
  42. Bit depth                                : 16 bits
    6 f8 w& g9 }( {1 ]  W% a
  43. Compression mode                         : Lossy/ M: j2 h: @* q8 o& s4 J1 I/ c% o
  44. Stream size                              : 469 MiB (10%)- Q0 @1 L  E. \% }# u5 f
  45. Language                                 : English
    8 e* W, K3 i6 @, E' I+ b
  46. Service kind                             : Complete Main
    . _# D: v. {' ~* K1 N* o
  47. Default                                  : Yes
    2 a# Y' _) \, P% ^1 k( M
  48. Forced                                   : No3 G% R* f; B3 c/ z! n

  49. ) X" U* D7 K/ e' k
  50. Text) Z7 V. }# W' E, Z
  51. ID                                       : 34 X& E" }# v% H
  52. Format                                   : UTF-86 b( e# X# z/ N* c7 e7 l$ T
  53. Codec ID                                 : S_TEXT/UTF8& W' E, R6 V: v
  54. Codec ID/Info                            : UTF-8 Plain Text
    . ~  |+ @  E/ q/ b/ x+ h
  55. Duration                                 : 1 h 32 min
    8 \+ m, T3 ^. e& ?
  56. Bit rate                                 : 0 b/s
    ( F+ ?+ L: n& J% m5 r- M/ r
  57. Count of elements                        : 249 l" r! F# O; [& a. |$ p+ u
  58. Stream size                              : 554 Bytes (0%)  p! p# i2 f4 V+ f8 E2 m  |% p
  59. Title                                    : English-Forced0 f6 S( ?: S5 |0 g
  60. Language                                 : English8 x" ?, N+ G- |, j& d/ R
  61. Default                                  : Yes
    - Y+ h3 D1 v% D8 V( u( V
  62. Forced                                   : Yes* l- ]8 p0 s0 W( g! B& d0 Z: r

  63. , D0 D6 ~8 H% T+ d) P" }( z
  64. Menu
    # Z( P) C: m8 Y% W
  65. 00:00:00.000                             : en:00:00:00.0000 @/ |4 d- z$ y  _( {
  66. 00:04:52.417                             : en:00:04:52.4174 `" w: a5 H, Z0 q7 y6 _7 I$ v
  67. 00:09:49.088                             : en:00:09:49.088
    , ^7 c  \" V" @" G
  68. 00:15:35.643                             : en:00:15:35.643
    ! x8 Z2 H4 V2 b' s8 J$ P
  69. 00:20:26.767                             : en:00:20:26.7679 L, s2 O: i# O. {7 p
  70. 00:25:47.838                             : en:00:25:47.838, {& ~  M$ R) |. N$ \+ w" w
  71. 00:35:15.780                             : en:00:35:15.780
    , V7 V% K; Q# D: |' S
  72. 00:42:53.738                             : en:00:42:53.738- \8 [  _+ D. o0 c$ a2 A
  73. 00:47:13.664                             : en:00:47:13.664% ~/ x5 N; h  \6 ?
  74. 00:52:57.883                             : en:00:52:57.883
    $ h* j, O0 s+ k
  75. 00:55:41.463                             : en:00:55:41.463' z, j* J2 x! n) u8 W
  76. 01:01:02.659                             : en:01:01:02.659% r' I; r) ?5 V. u* X0 p& t
  77. 01:06:11.301                             : en:01:06:11.301. Y3 U; w( k" S, x) R1 y% g0 i. Y
  78. 01:10:23.136                             : en:01:10:23.1360 d8 |3 w7 _5 B" n
  79. 01:13:52.136                             : en:01:13:52.1360 o* S# d. m/ p. S7 f
  80. 01:18:26.327                             : en:01:18:26.327
    0 r9 O/ F  N7 L5 D9 o- I& K5 S+ I4 U) d
  81. 01:22:39.496                             : en:01:22:39.496
    9 ^! T: b( H; A, @$ I+ a$ h9 ^/ [8 M
  82. 01:32:57.322                             : en:01:32:57.322
    3 \) z  @8 h+ i" g+ e) q
  83. 01:38:30.238                             : en:01:38:30.238
复制代码
; R( o2 G" I+ F# T& w' g7 ]! U" X
爱探险的朵拉:消失的黄金城 Dora.and.the.Lost.City.of.Gold.2019.720p.BluRay.x264-DRONES 4.38GB-2.png 0 C& e* f( g- d( O

' r8 `8 o* _. y- I; a: m( p# M2 w% e: L: L$ M0 n2 @9 i) R7 e

- d, v/ d5 W: }7 ^' B
6 ?: O4 B2 p9 V7 J% x) m, k) C0 i1 |8 I( J" Q$ U% e' H. `: p4 W

) l) F7 D, N3 |) n$ g
回复

使用道具 举报

级别:荣升主角 Lv.5

注册时间
2019-10-27
最后登录
2020-5-27
听众
1
收听
0
主题
0
蓝光币
507 枚
贡献
0 点
发表于 2019-11-8 00:00:12 | 显示全部楼层
0 I5 X$ P3 r% L* z+ v) {
楼主太厉害了!楼主,电影应该很好看我觉得中国高清电影网真是个好地方!
回复

使用道具 举报

级别:功成名就 Lv.9

注册时间
2019-4-24
最后登录
2020-5-25
听众
14
收听
0
主题
0
蓝光币
539 枚
贡献
0 点
发表于 2019-11-8 10:49:16 | 显示全部楼层
楼主发贴辛苦了,谢谢楼主分享!我觉得中国高清电影网是注册对了!
回复

使用道具 举报

级别:初级观众 Lv.1

注册时间
2019-11-13
最后登录
2019-11-13
听众
0
收听
0
主题
0
蓝光币
3 枚
贡献
0 点
发表于 2019-11-13 12:13:53 | 显示全部楼层
楼主发贴辛苦了,谢谢楼主分享!我觉得中国高清电影网是注册对了!
回复

使用道具 举报

懒得打字嘛,点击右侧快捷回复 【右侧内容,后台自定义】
您需要登录后才可以回帖 登录 | 立即注册

本版积分规则

Archiver|手机版|小黑屋| 中国高清网 ( ICP备17007870号-2 ) |网站地图 

GMT+8, 2020-5-28 12:13 , Processed in 0.178692 second(s), 38 queries .

Powered by HDchina X3.4

Copyright 2017-2019©HDchina.All right reserved

返回顶部 联系我们