查看: 52|回复: 4

[冒险片] 爱探险的朵拉:消失的黄金城 Dora.and.the.Lost.City.of.Gold.2019.720p.BluRay.x264-DRONES 4.38GB

[复制链接]

 成长值: 3160

级别:资源管理组

注册时间
2017-10-20
最后登录
2019-11-11
听众
1
收听
0
主题
86761
蓝光币
61813 枚
贡献
11119 点
发表于 2019-11-7 20:41:18 | 显示全部楼层 |阅读模式
204035y49dzlcuue9e904e.png
' E# ]3 D/ I. l# G* a
& U0 b3 ^4 g) Q& T- U4 Z译  名 爱探险的朵拉:消失的黄金城 / Dora the Explorer / 朵拉与失落的黄金城 / 爱探险的Dora:勇闯黄金迷城(港) / 爱探险的朵拉
! ?$ L0 m1 b7 O; w0 r片  名 Dora and the Lost City of Gold
3 f# g3 A* J9 Q# k; V. k; M年  代 2019
7 _' g$ ?1 Z# d6 a8 f7 }产  地 美国
4 Y( u) ]( j' N$ I! b4 @7 O5 B" F类  别 冒险6 B( m) z5 ?- B1 h7 {, s6 L5 K
语  言 英语
6 Y: D/ e7 n- |* u1 X上映日期 2019-08-09(美国)
: O# Q! d  a+ {6 O4 fIMDb评分  6.1/10 from 6012 users) {$ s% M$ q6 y- E
IMDb链接  https://www.imdb.com/title/tt7547410: N' M  p6 D7 b2 X
豆瓣评分 5.5/10 from 218 users
6 Y5 }7 f  X- x+ j! j8 _. d豆瓣链接 https://movie.douban.com/subject/27179713/* C1 R9 Y. O+ b/ u% k
片  长 100分钟' Y2 U9 ]3 @' }& ~" R: M
导  演 詹姆斯·博宾 James Bobin* U; W9 C2 @& T2 @
编  剧 马修·罗宾逊 Matthew Robinson / 尼古拉斯·斯托勒 Nicholas Stoller / 克里斯·吉福德 Chris Gifford / 瓦莱丽·沃尔什 Valerie Walsh / 埃里克·韦纳 Eric Weiner / 汤姆·惠勒 Tom Wheeler. t, @& e/ C" n; ?, r
主  演 伊莎贝拉·莫奈 Isabela Moner% O; d" n, t4 a: R) ]5 q1 d+ O
       迈克尔·佩纳 Michael Pe?a' R0 }6 |6 z7 V7 J2 N; B9 f3 _
       本尼西奥·德尔·托罗 Benicio del Toro
) V) P. c+ A2 P# g3 ^4 w       考莉安卡·基尔彻 Q'orianka Kilcher# R2 \+ b( T9 w+ C" B( S9 k
       伊娃·朗格利亚 Eva Longoria
* W7 R4 `# Z, S! A* B! G2 S' h       特穆拉·莫里森 Temuera Morrison
9 w- L/ M6 L9 |  c8 C9 t- N       欧赫尼奥·德尔维斯 Eugenio Derbez
" S" P3 ?0 c% o0 S$ q5 Q       玛德琳·麦登 Madeleine Madden! C0 K9 B- C$ F
       艾德里安娜·巴拉扎 Adriana Barraza& j1 f; i6 v8 y6 L
       伊瑟拉·维加 Isela Vega
0 Z5 N, G. K. w- h' O1 X       克里斯托弗·卡比 Christopher Kirby
$ z. |- s+ B6 Z# `1 E) Z" _- k: S       尼古拉斯·库姆 Nicholas Coombe
: J/ _6 h: d6 M       布拉登·刘易斯 Braden Lewis+ o$ ]7 Y% W/ S8 D3 L
       杰弗里·沃尔伯格 Jeffrey Wahlberg* D( g1 N4 j) {- c* l

3 t1 i, K2 Z, l2 N" }+ c
) y0 e* E2 {& L0 M6 J标  签 冒险 | 美国 | 2019 | 爱探险的朵拉 | 奇异 | 魔幻 | 派拉蒙 | 搞笑
% K$ @# P1 w2 T2 \3 {8 e* i0 H0 g. C. C/ }/ M" K" N* W
简  介  ( e! I) Y4 W5 Z( ^+ n1 U6 W# E

: \" q) v4 v9 {; N3 R' {  朵拉和怙恃一向生活在森林中,直到有天她的怙恃决议去寻觅传闻中失落的黄金城,而朵拉则被迫回到都会,与表哥迭戈一家人同住,起头了一段啼笑皆非的高中生活。) R# W0 f# \& s; ]$ b( U) l
  在一次黉舍构造的参观活动中,朵拉和朋友们被奥秘人士绑架,他们被带到了森林深处。回到森林的朵拉,展现出了比其他人更强的保存才能。她率领着小猴布茨,表哥迭戈,奥秘的森林专家和一群毫无田野经历的朋友们起头了一段惊险的冒险旅程。他们不但要在幻化莫测的森林中保存下来,更要从好人手中救出朵拉的怙恃,破解黄金城的奥秘。
3 R. ]8 W8 c% U  `) F3 L  v
  1. Video% _% ]6 s. ?+ `6 C- D
  2. ID                                       : 10 o% G  l: S7 f/ s( g4 ~2 n8 m0 h+ V
  3. Format                                   : AVC' q9 p8 B! o/ R: B
  4. Format/Info                              : Advanced Video Codec
    5 ]5 a4 P1 G% K+ J
  5. Format profile                           : High@L4$ v& s& [% n9 v" g1 k
  6. Format settings                          : CABAC / 5 Ref Frames2 v% W* V/ \- o3 x( B1 g
  7. Format settings, CABAC                   : Yes; P, c  T' X9 j& u( j1 t
  8. Format settings, Reference frames        : 5 frames! n& @# p4 a7 g+ h/ w4 W9 ?$ s+ _+ l7 I
  9. Codec ID                                 : V_MPEG4/ISO/AVC3 [# L2 `" d8 `- M( G( G# b4 t- x
  10. Duration                                 : 1 h 42 min9 n- H8 G2 M  c  L
  11. Bit rate                                 : 5 466 kb/s7 X9 g% n( a* X* r1 H& O
  12. Width                                    : 1 280 pixels
      J0 q0 G8 r$ L: M
  13. Height                                   : 536 pixels- ]: |5 t. F7 ]7 C
  14. Display aspect ratio                     : 2.40:1
    + m, ?2 q# S; {: o! e- Q
  15. Frame rate mode                          : Constant
    / @5 {9 |' N" p2 }. |
  16. Frame rate                               : 23.976 (24000/1001) FPS
    5 ]; _3 R7 y, q, l
  17. Color space                              : YUV
    / l/ q$ m) M' o- M
  18. Chroma subsampling                       : 4:2:0
    * H/ X3 P+ `( Q: W5 \: @+ G. }. o
  19. Bit depth                                : 8 bits. H2 v0 w- C% C1 e7 U
  20. Scan type                                : Progressive4 q  [8 d& W- [# R" |. g
  21. Bits/(Pixel*Frame)                       : 0.332+ Y; W. M8 g% |
  22. Stream size                              : 3.91 GiB (89%)
    7 k7 X( K# c( o9 y! H+ [6 T
  23. Writing library                          : x264 core 158 r2988 7817004
    ( |; S5 g$ d/ W; c( \
  24. Encoding settings                        : cabac=1 / ref=5 / deblock=1:-3:-3 / analyse=0x3:0x113 / me=umh / subme=8 / psy=1 / psy_rd=1.00:0.00 / mixed_ref=1 / me_range=16 / chroma_me=1 / trellis=1 / 8x8dct=1 / cqm=0 / deadzone=21,11 / fast_pskip=1 / chroma_qp_offset=-2 / threads=17 / lookahead_threads=2 / sliced_threads=0 / nr=0 / decimate=1 / interlaced=0 / bluray_compat=0 / constrained_intra=0 / bframes=3 / b_pyramid=2 / b_adapt=1 / b_bias=0 / direct=3 / weightb=1 / open_gop=0 / weightp=2 / keyint=250 / keyint_min=23 / scenecut=40 / intra_refresh=0 / rc_lookahead=50 / rc=2pass / mbtree=1 / bitrate=5466 / ratetol=1.0 / qcomp=0.60 / qpmin=0 / qpmax=69 / qpstep=4 / cplxblur=20.0 / qblur=0.5 / ip_ratio=1.40 / aq=1:1.004 l# W! q: p& d. u
  25. Language                                 : English
    ! n3 m9 N% D' b# Q
  26. Default                                  : Yes
    ) ^; L8 ^7 J" \( P$ F
  27. Forced                                   : No+ @% G5 N: F  u7 I& D) K' D) E8 b3 i

  28. 6 V9 Z# Q* C; E4 K( n5 a. W
  29. Audio
    ' [( k$ ?! h* ]5 Q
  30. ID                                       : 2
    : [  R& c- e; n0 R
  31. Format                                   : AC-3' l8 K7 F' X& o4 U( T
  32. Format/Info                              : Audio Coding 36 K6 r! x. q! p0 g" j
  33. Commercial name                          : Dolby Digital
    / V8 d( c% D" h: J
  34. Codec ID                                 : A_AC3/ t& }# Y0 p; d7 J& j
  35. Duration                                 : 1 h 42 min3 }( ?* J0 q5 j2 }
  36. Bit rate mode                            : Constant
    - \! H( v% T" T  t( y7 D! |
  37. Bit rate                                 : 640 kb/s* J+ s! F; j" _
  38. Channel(s)                               : 6 channels
    4 i9 h3 L. s' S( R7 X% a6 Y0 O& W
  39. Channel layout                           : L R C LFE Ls Rs" b6 h2 |1 P' j; \& T
  40. Sampling rate                            : 48.0 kHz0 @# k, Y1 F" E0 K3 C
  41. Frame rate                               : 31.250 FPS (1536 SPF)9 v: [, K( }, d- U
  42. Bit depth                                : 16 bits/ ]$ |* E! F. m9 ^! X' m" @7 U
  43. Compression mode                         : Lossy) \! K2 A% a1 ^" V0 v1 W* ~( }
  44. Stream size                              : 469 MiB (10%)$ A5 I) x" ?: C# j( S$ B! ]# V% T
  45. Language                                 : English
    1 }: i: Y0 \5 ~2 L% W( d. Z! L
  46. Service kind                             : Complete Main
    3 s: {8 |: l4 {. y; W
  47. Default                                  : Yes
    2 ?& F/ g6 `7 F$ E  ]
  48. Forced                                   : No) ^3 r7 W* j/ o- {7 d& s

  49. 1 o( D' a9 ~4 x% r: f7 k
  50. Text" |8 L% C8 f! o. K
  51. ID                                       : 3
    2 p. T4 \) m- [' t; R% O* s2 \
  52. Format                                   : UTF-85 h( j: q# w. }3 H0 z  i. \
  53. Codec ID                                 : S_TEXT/UTF83 S8 Z5 I2 X. u; }3 s& H
  54. Codec ID/Info                            : UTF-8 Plain Text9 Z- g  V& q# t
  55. Duration                                 : 1 h 32 min
    + O$ ^" S" `- s+ d4 V+ k) C
  56. Bit rate                                 : 0 b/s
    5 i5 F# T7 N, b1 K' ]
  57. Count of elements                        : 24. b) R3 h! B) ^. v" x
  58. Stream size                              : 554 Bytes (0%)
    0 F3 U- u# V+ A. k+ r/ o. `- ?
  59. Title                                    : English-Forced( F7 K8 z0 E) T- p0 @8 P  @
  60. Language                                 : English$ n: X+ C. E' B/ c' ]
  61. Default                                  : Yes9 R2 @5 \1 V8 o& q
  62. Forced                                   : Yes4 Z+ p4 m& B1 @6 [4 B
  63.   r: f$ r* Q+ ~+ z- R, Z4 M
  64. Menu
    0 s9 t1 }7 B9 |: @4 K
  65. 00:00:00.000                             : en:00:00:00.0002 \. C5 L/ p% i- x9 w0 j4 E
  66. 00:04:52.417                             : en:00:04:52.417
    # W- w6 y" F1 l1 Z
  67. 00:09:49.088                             : en:00:09:49.088* N4 \' h+ U: ^. c
  68. 00:15:35.643                             : en:00:15:35.643
    & G& @& b- d  t; W5 _
  69. 00:20:26.767                             : en:00:20:26.767
    ; L' v3 K$ z, H! `  d# x
  70. 00:25:47.838                             : en:00:25:47.838
    " j3 r& I+ L  b7 @9 C, q; b! U5 [
  71. 00:35:15.780                             : en:00:35:15.780
    3 i& k. q" A6 T6 A2 D7 |' m
  72. 00:42:53.738                             : en:00:42:53.738$ D( S$ I7 B6 r% M  M2 |
  73. 00:47:13.664                             : en:00:47:13.664
    : ^0 ^( N9 h. a1 k/ I2 B
  74. 00:52:57.883                             : en:00:52:57.883* {& i: H) C( {
  75. 00:55:41.463                             : en:00:55:41.463& f5 I  r" J  H2 n
  76. 01:01:02.659                             : en:01:01:02.659
    + ~% \! t) K# K: p  l2 N
  77. 01:06:11.301                             : en:01:06:11.301
    % N- ~6 ]; r9 r8 f1 Q
  78. 01:10:23.136                             : en:01:10:23.136
    2 ^( \: \& O* I( D
  79. 01:13:52.136                             : en:01:13:52.136: i0 i4 N4 G2 ~0 o4 s0 s
  80. 01:18:26.327                             : en:01:18:26.3278 D8 u5 l! _+ x! g
  81. 01:22:39.496                             : en:01:22:39.4969 \, V+ E% ]5 w3 o$ |* L5 l* y
  82. 01:32:57.322                             : en:01:32:57.3221 X# o* Y9 C' U; s/ h) U2 P3 P
  83. 01:38:30.238                             : en:01:38:30.238
复制代码
0 n4 T( Y4 H  F7 B5 Q# D
爱探险的朵拉:消失的黄金城 Dora.and.the.Lost.City.of.Gold.2019.720p.BluRay.x264-DRONES 4.38GB-2.png
3 z) F+ e% p6 U8 a$ C
0 C. f6 F) [# m3 q
- R2 H) N2 P; ^9 e& A" a
* I* l, Y; p5 f4 s9 C* X0 j; u+ w" |! U* E: W: q6 K% H/ W' j
/ {1 x0 k" e4 w7 |

8 g5 H' n2 `# V' ^
VIP会员免费任意下载本站所有资源!---点击开通
回复

使用道具 举报

级别:普通观众 Lv.2

注册时间
2019-10-27
最后登录
2019-11-14
听众
0
收听
0
主题
0
蓝光币
21 枚
贡献
0 点
发表于 7 天前 | 显示全部楼层

" G# ~+ [' [2 u- F, E/ o+ r7 x9 l楼主太厉害了!楼主,电影应该很好看我觉得中国高清电影网真是个好地方!
VIP会员免费任意下载本站所有资源!---点击开通
回复

使用道具 举报

级别:一举成名 Lv.7

注册时间
2019-4-24
最后登录
2019-11-14
听众
13
收听
0
主题
0
蓝光币
194 枚
贡献
0 点
发表于 7 天前 | 显示全部楼层
楼主发贴辛苦了,谢谢楼主分享!我觉得中国高清电影网是注册对了!
VIP会员免费任意下载本站所有资源!---点击开通
回复

使用道具 举报

级别:初级观众 Lv.1

注册时间
2019-11-13
最后登录
2019-11-13
听众
0
收听
0
主题
0
蓝光币
3 枚
贡献
0 点
发表于 前天 12:13 | 显示全部楼层
楼主发贴辛苦了,谢谢楼主分享!我觉得中国高清电影网是注册对了!
VIP会员免费任意下载本站所有资源!---点击开通
回复

使用道具 举报

级别:群众演员 Lv.3

注册时间
2018-1-26
最后登录
2019-11-15
听众
3
收听
0
主题
0
蓝光币
3 枚
贡献
0 点
发表于 前天 20:25 | 显示全部楼层
██████在-线-看-片bxxp7.c o m 】██████: Z4 Q: g& B, A  @: p  I

- k% Q" P, A& a██████在-线-看-片
bxxp7.c o m 】██████
' I2 U' G! ]7 K
, ^6 b5 T9 _' g3 p1 t3 w. t. B██████在-线-看-片
bxxp7.c o m 】██████
( |2 a, D# ]9 R  J# O. U0 o4 N) ?, b6 q
██████在-线-看-片
bxxp7.c o m 】██████
; L& n7 N3 y( |" v1 n0 U0 s" D2 n* b4 Q9 T3 z) G( u+ k$ N5 x
██████在-线-看-片
bxxp7.c o m 】██████
. r3 Q3 D6 G- {; m" g
# v5 ^" k9 n8 ?7 [; D6 y██████在-线-看-片
bxxp7.c o m 】██████
5 \% O3 c1 {  L6 t4 l+ I7 L: I. L0 s8 f6 H/ G/ S& R
██████在-线-看-片
bxxp7.c o m 】██████
VIP会员免费任意下载本站所有资源!---点击开通
回复

使用道具 举报

懒得打字嘛,点击右侧快捷回复 【右侧内容,后台自定义】
您需要登录后才可以回帖 登录 | 立即注册

本版积分规则

QQ|Archiver|手机版|小黑屋| 中国高清网 |网站地图 

GMT+8, 2019-11-15 07:56 , Processed in 0.271027 second(s), 37 queries .

Powered by HDchina X3.4

Copyright 2017-2019©HDchina.All right reserved

返回顶部 联系我们