查看: 170|回复: 1

[纪录片] 泰布机密 Tab.Hunter.Confidential.2015.720p.BluRay.x264-REGRET 3.28GB

[复制链接]

 成长值: 5550

级别:资源管理组

注册时间
2017-10-20
最后登录
2020-6-4
听众
1
收听
0
主题
96338
蓝光币
155181 枚
贡献
20716 点
发表于 2019-11-7 20:39:09 | 显示全部楼层 |阅读模式
泰布机密 Tab.Hunter.Confidential.2015.720p.BluRay.x264-REGRET 3.28GB-1.png
/ o. v8 C- ?5 O2 |/ I- f  p: D2 d# p- b7 O! d: [* Q' q" G, B$ Y2 z5 d
译  名 泰布机密6 Q7 ~( x& k( z+ k, `
片  名 Tab Hunter Confidential" q  j( d9 D( H
年  代 20152 T/ |% Y' F0 q2 l
产  地 美国
- i" Z3 w  U# C1 a# n类  别 记载片 / 同性
# P! _1 |: N6 G% g# y语  言 英语: p2 n0 ?) Q  d( E, o, k, y' e
上映日期 2015-03-15(美国)$ F/ Z; Y7 f9 J' b' F, I: R, M6 \
IMDb评分  7.7/10 from 2861 users2 j# {5 n3 K$ ^3 d) v! `: `8 w+ J
IMDb链接  https://www.imdb.com/title/tt1533089
" S8 s) K8 n# J  U) m7 B豆瓣评分 7.5/10 from 70 users6 l1 d1 W  i* c
豆瓣链接 https://movie.douban.com/subject/5162118/
1 c+ T! b8 M: o3 e  d% Y, O  V) q片  长 90分钟
/ y, J% K, Q) _4 Y7 e9 D$ j导  演 Jeffrey Schwarz
/ @. K* R4 w0 l. G% G% C主  演 泰布·亨特 Tab Hunter) e9 Y( I2 O& n' S
       娜塔利·伍德 Natalie Wood
/ Q' s0 Y9 e1 D$ d3 c       克林特·伊斯特伍德 Clint Eastwood3 }. f& z. ~+ G1 ~; a! h- H
       保罗·纽曼 Paul Newman* h' h" R/ C: V. }+ ^
       黛比·雷诺斯 Debbie Reynolds, i1 t' k8 a9 D+ i/ A. z+ [
       安东尼·博金斯 Anthony Perkins2 ~7 K' }- F0 X
       竹井乔治 George Takei
9 X1 T) q/ }5 Y' N5 f6 K
5 T5 V! E3 e6 e, O- Q' G
  A( [# N; E1 R! K' u标  签 记载片 | 美国 | 列传 | 同性 | 2015 | Documentary | LGBT | 电影
  }/ K+ M4 R# R& `
* \' N5 A: y; F0 K. r  D简  介  
$ r" L7 p' |: _, ?& p; _9 U7 _" B4 g* ?* E2 J
  The story of matinee idol Tab Hunter from teenage stable boy to closeted Hollywood star of the 1950s.2 L  D# w4 w& T# X0 [
  1. Video# i0 R- s; ^9 r0 w' s8 j
  2. ID                                       : 1
    0 J& f! t2 M2 ?% F  E7 s
  3. Format                                   : AVC
    7 O" _* W* U; l& D& x, m
  4. Format/Info                              : Advanced Video Codec8 A7 J8 ^. ?  a4 |# v0 \
  5. Format profile                           : High@L4
    ( i  q# B$ O: p
  6. Format settings                          : CABAC / 5 Ref Frames+ T( T5 _& v* Q/ x. S$ j
  7. Format settings, CABAC                   : Yes% X) y4 I9 W, a
  8. Format settings, Reference frames        : 5 frames
    - C5 b: f! i$ v, i0 y& M- I
  9. Codec ID                                 : V_MPEG4/ISO/AVC( N* @! ~9 G% u; m3 k9 m
  10. Duration                                 : 1 h 30 min' }; F1 l' x. e- i1 ?4 Q* r$ x
  11. Bit rate                                 : 4 745 kb/s
    % H3 }, Y( ~- m/ r' r
  12. Width                                    : 1 280 pixels3 i3 W4 i, }% [1 f
  13. Height                                   : 720 pixels9 |5 @9 \! }  h0 e: z
  14. Display aspect ratio                     : 16:9
      ~# \; }" u/ \2 ]
  15. Frame rate mode                          : Constant( p' X$ m1 j8 D! Z0 u4 _' r
  16. Frame rate                               : 23.976 (24000/1001) FPS
    / R: r, @. j7 N  W
  17. Color space                              : YUV0 z. y8 r" S9 x  ?5 L- F
  18. Chroma subsampling                       : 4:2:0
    1 n; o# K9 h& _
  19. Bit depth                                : 8 bits
    - y( C, U6 z7 |' ?
  20. Scan type                                : Progressive- P6 h. x! n7 P: F# }  B4 v
  21. Bits/(Pixel*Frame)                       : 0.215
    ) W4 j+ u& z0 q5 j: N
  22. Stream size                              : 2.99 GiB (91%)
    & s& f- F, e0 ~  M
  23. Writing library                          : x264 core 158 r2984 3759fcb
      n; |. x6 X1 x5 |& \7 t; u/ l
  24. Encoding settings                        : cabac=1 / ref=5 / deblock=1:-3:-3 / analyse=0x3:0x133 / me=umh / subme=9 / psy=1 / psy_rd=1.00:0.00 / mixed_ref=1 / me_range=16 / chroma_me=1 / trellis=2 / 8x8dct=1 / cqm=0 / deadzone=21,11 / fast_pskip=0 / chroma_qp_offset=-2 / threads=22 / lookahead_threads=1 / sliced_threads=0 / nr=0 / decimate=1 / interlaced=0 / bluray_compat=0 / constrained_intra=0 / bframes=3 / b_pyramid=2 / b_adapt=1 / b_bias=0 / direct=3 / weightb=1 / open_gop=0 / weightp=2 / keyint=240 / keyint_min=24 / scenecut=40 / intra_refresh=0 / rc_lookahead=50 / rc=2pass / mbtree=1 / bitrate=4745 / ratetol=1.0 / qcomp=0.60 / qpmin=0 / qpmax=69 / qpstep=4 / cplxblur=20.0 / qblur=0.5 / ip_ratio=1.40 / aq=1:1.006 f  s% V6 s7 }* ^5 X( I
  25. Language                                 : English$ H* ^7 G! |) {) f% N
  26. Default                                  : Yes/ g" h! P6 W& N
  27. Forced                                   : No
    + H+ A( [! ?8 Z

  28. % `* x1 c5 y: Q' w- y7 W
  29. Audio
    2 H9 V4 l: p5 B8 T' E5 ^
  30. ID                                       : 20 F% k' G5 W# w" r3 o' ^
  31. Format                                   : AC-3
    ( W+ J- V( k. h7 T1 X0 p
  32. Format/Info                              : Audio Coding 3
    5 i/ d; @! N9 B2 d3 H
  33. Commercial name                          : Dolby Digital9 M( M# Q! y. S& f7 q5 `) _- _7 t* E
  34. Codec ID                                 : A_AC3
    6 F) \, u! ?0 O
  35. Duration                                 : 1 h 30 min
    ' {  h4 ^3 s9 ^$ r
  36. Bit rate mode                            : Constant
    1 t/ j, c& A6 i+ [" I/ Q0 }: @
  37. Bit rate                                 : 448 kb/s
    # d6 `- _0 ?$ l* E$ m
  38. Channel(s)                               : 6 channels
    ( i+ m* |7 |; n( _
  39. Channel layout                           : L R C LFE Ls Rs  z$ G* K% V6 Q' l
  40. Sampling rate                            : 48.0 kHz' I& I% K" I: |
  41. Frame rate                               : 31.250 FPS (1536 SPF)# t) i/ Z% l+ b
  42. Bit depth                                : 16 bits) b) c* H# Y+ O
  43. Compression mode                         : Lossy
    - d& ]  Q1 S. c2 C+ _# O
  44. Stream size                              : 289 MiB (9%)
    * c7 C# g9 b' `7 ^$ k; R
  45. Language                                 : English
    % B: s& r, W: Z5 B. z, X/ L
  46. Service kind                             : Complete Main
    ( s( A& R  }4 ]" f/ `- p
  47. Default                                  : Yes5 T, @$ A" S* l6 A8 t1 ^: y5 j% k
  48. Forced                                   : No  ~# d( x7 u. {# H
  49. " F( u$ A; x2 c# `1 V& d/ R# F8 M
  50. Text
    : G. d4 e2 v2 {! X
  51. ID                                       : 3
    2 p- u. O# V8 ]/ H
  52. Format                                   : UTF-8
    * y" O. t/ L$ v/ R  _) [% F* ~. P
  53. Codec ID                                 : S_TEXT/UTF8
    5 E7 x0 A' }0 \; i2 {! @
  54. Codec ID/Info                            : UTF-8 Plain Text
    2 [; {4 {/ ?# T, i, V
  55. Duration                                 : 1 min 42 s
    % p9 d+ H/ s' P
  56. Bit rate                                 : 66 b/s/ O: F8 C# P# g8 y  {* x
  57. Count of elements                        : 20' {9 M, j# Q5 ~4 d3 q2 ]6 k0 J3 R
  58. Stream size                              : 853 Bytes (0%)$ P: {5 y$ A( i. c
  59. Title                                    : English
    2 B: c- p: q4 p/ z7 ?( [5 C1 f  W* `
  60. Language                                 : English' A5 E/ W% {) V2 \7 T
  61. Default                                  : Yes4 v# d; E! f& G+ P) ~0 I
  62. Forced                                   : Yes8 F4 e8 v9 `/ j4 [9 S" z7 Z

  63. 3 w9 B' ^* _" t
  64. Menu: E9 P; O7 d% d% F
  65. 00:00:00.000                             : en:00:00:00.000) E! R3 D) }* p6 m7 E4 E
  66. 00:05:52.352                             : en:00:05:52.352/ B4 m% G6 V/ T' v( t
  67. 00:12:17.153                             : en:00:12:17.153
    ' `; a! i# R; ]8 a8 H
  68. 00:20:01.117                             : en:00:20:01.117) g2 O0 p4 @& y2 j! f
  69. 00:25:39.705                             : en:00:25:39.7051 a) ?- F3 H4 k* Z$ |
  70. 00:32:24.276                             : en:00:32:24.276" \0 V! N5 L6 S* ]* s) Z
  71. 00:39:17.230                             : en:00:39:17.230% f0 ^! J. ^2 l. ?# \+ e
  72. 00:44:43.014                             : en:00:44:43.014* l" N8 a% _& f
  73. 00:54:23.510                             : en:00:54:23.510
    * K% v- b3 O* `/ C3 w
  74. 01:03:33.143                             : en:01:03:33.143
    1 P7 \- V; z5 G$ n" B9 L: O
  75. 01:09:05.475                             : en:01:09:05.475
      m# x% d, B- Q9 R7 I1 x3 N- P1 g! S
  76. 01:13:14.140                             : en:01:13:14.140
    1 F6 v  u. T3 \$ _% B8 {
  77. 01:19:40.192                             : en:01:19:40.192, S: _% J+ S/ M$ Q. k3 V
  78. 01:27:50.265                             : en:01:27:50.265
复制代码
. Q  t$ n2 t, P7 U  D6 E
泰布机密 Tab.Hunter.Confidential.2015.720p.BluRay.x264-REGRET 3.28GB-2.png 6 t0 Q2 G4 ^9 x7 D$ t: [' U

7 L4 y+ V( j2 [0 B! h7 T# @
% g9 i% \' R, G# B+ P3 C0 _/ b! z$ [. Q& h) c
, J6 y; r* Z. V

$ z9 l4 C, N8 Y) ]) j
% _! a' `2 T/ E- T
* T- f& [$ X0 v: K# K2 [6 u
回复

使用道具 举报

级别:功成名就 Lv.9

注册时间
2019-4-24
最后登录
2020-6-3
听众
14
收听
0
主题
0
蓝光币
541 枚
贡献
0 点
发表于 2019-11-8 10:50:41 | 显示全部楼层
楼主发贴辛苦了,谢谢楼主分享!我觉得中国高清电影网是注册对了!
回复

使用道具 举报

懒得打字嘛,点击右侧快捷回复 【右侧内容,后台自定义】
您需要登录后才可以回帖 登录 | 立即注册

本版积分规则

Archiver|手机版|小黑屋| 中国高清网 ( ICP备17007870号-2 ) |网站地图 

GMT+8, 2020-6-5 04:58 , Processed in 0.146736 second(s), 38 queries .

Powered by HDchina X3.4

Copyright 2017-2019©HDchina.All right reserved

返回顶部 联系我们