查看: 42|回复: 2

[纪录片] 泰布机密 Tab.Hunter.Confidential.2015.720p.BluRay.x264-REGRET 3.28GB

[复制链接]

 成长值: 3160

级别:资源管理组

注册时间
2017-10-20
最后登录
2019-11-11
听众
1
收听
0
主题
86761
蓝光币
61857 枚
贡献
11119 点
发表于 2019-11-7 20:39:09 | 显示全部楼层 |阅读模式
泰布机密 Tab.Hunter.Confidential.2015.720p.BluRay.x264-REGRET 3.28GB-1.png % d- W- T( m+ P) z* {, {

5 i2 x5 h+ \3 }4 O译  名 泰布机密4 h+ W9 I$ C7 Y- X. c- z8 O7 ]
片  名 Tab Hunter Confidential8 T( w/ i1 P9 R+ Q8 s$ ^* Z
年  代 2015: y. q3 P0 n9 ?, q  a5 \/ Z! u2 X2 g
产  地 美国1 C* L" V% n+ Z
类  别 记载片 / 同性8 W; u+ j, U8 k) v: ?1 z- M4 N
语  言 英语
2 p4 @7 k1 i" L. ^6 ?, u8 z. F上映日期 2015-03-15(美国)
1 _5 H$ }) o( v; c# b. ^& _IMDb评分  7.7/10 from 2861 users
5 z3 y& G; C" l6 W% p: r# DIMDb链接  https://www.imdb.com/title/tt1533089# N; z9 p$ C# |/ Y
豆瓣评分 7.5/10 from 70 users
: ^2 l/ m* X& _+ G% D豆瓣链接 https://movie.douban.com/subject/5162118/
! ^, x2 ^8 z6 D' ~4 g+ G片  长 90分钟
* l+ V/ h6 a' h; l导  演 Jeffrey Schwarz
9 b8 P/ K" S7 q0 ~& A% Y% p9 [主  演 泰布·亨特 Tab Hunter0 y5 W( {" p: s. C+ e( m! q
       娜塔利·伍德 Natalie Wood5 p+ `9 [5 q- f( U, N
       克林特·伊斯特伍德 Clint Eastwood- {0 a- g4 i4 R) b
       保罗·纽曼 Paul Newman
8 E( }4 W$ F0 x$ X       黛比·雷诺斯 Debbie Reynolds4 i" Q% L6 K! {/ O
       安东尼·博金斯 Anthony Perkins+ P7 f# [; B# H
       竹井乔治 George Takei
7 Q! Q" W# J" O, W
/ K+ [, V' j- D1 m' P3 z6 `" C4 X* K  x* D
标  签 记载片 | 美国 | 列传 | 同性 | 2015 | Documentary | LGBT | 电影
1 p4 @& ]2 V/ `1 Y: L' ]: J# x+ L: k) z4 D( n$ s7 [# H
简  介  / A' k7 U6 G) y
* J/ i+ f$ T! n5 {
  The story of matinee idol Tab Hunter from teenage stable boy to closeted Hollywood star of the 1950s.
1 G" _# k: f, A: g- H2 }
  1. Video8 i+ a# |4 [& k& I. R0 o
  2. ID                                       : 1
    ) _" V. s  ?- g7 `
  3. Format                                   : AVC5 Q, D. j7 ^+ ?7 D4 J+ T0 l: i
  4. Format/Info                              : Advanced Video Codec: f* ~, |/ `; x
  5. Format profile                           : High@L47 M* N  `! e. G$ Z, M* f, a
  6. Format settings                          : CABAC / 5 Ref Frames
    : _* ^2 |% o1 K& G7 E! ~
  7. Format settings, CABAC                   : Yes
    . G( j7 E' q0 {  N! ^7 s, j3 H1 k
  8. Format settings, Reference frames        : 5 frames
    3 L  W- c7 B4 p, ^% ?4 W6 s# l
  9. Codec ID                                 : V_MPEG4/ISO/AVC
    ! y0 T5 S$ r# J; H( D5 u4 D/ J
  10. Duration                                 : 1 h 30 min& [# }6 V/ a9 o; Q: d3 M
  11. Bit rate                                 : 4 745 kb/s) ]% P( W: ?. @8 S% b
  12. Width                                    : 1 280 pixels
    2 ~' _7 y& X0 j9 m) \6 X0 t
  13. Height                                   : 720 pixels
    ; Q: n5 c7 V! W) P
  14. Display aspect ratio                     : 16:9, _2 `3 z+ w0 u) r
  15. Frame rate mode                          : Constant
      y+ U. _) G1 f  X& [: [6 k
  16. Frame rate                               : 23.976 (24000/1001) FPS
    % ]+ t  A: E0 o7 n9 r
  17. Color space                              : YUV" }7 q5 ]$ ]" S8 S2 V  ~
  18. Chroma subsampling                       : 4:2:05 n- J; O2 F$ ^+ `' M- l
  19. Bit depth                                : 8 bits
    - _. Q6 R/ i6 E- Y6 z( n2 [0 s) V
  20. Scan type                                : Progressive
    % L% i% e: C9 h$ A
  21. Bits/(Pixel*Frame)                       : 0.2152 O/ h5 j8 ?/ ~
  22. Stream size                              : 2.99 GiB (91%)1 ?1 P. ~* Z7 T0 j1 F8 Y
  23. Writing library                          : x264 core 158 r2984 3759fcb, R& w% @5 O! a* H1 C1 ]+ }
  24. Encoding settings                        : cabac=1 / ref=5 / deblock=1:-3:-3 / analyse=0x3:0x133 / me=umh / subme=9 / psy=1 / psy_rd=1.00:0.00 / mixed_ref=1 / me_range=16 / chroma_me=1 / trellis=2 / 8x8dct=1 / cqm=0 / deadzone=21,11 / fast_pskip=0 / chroma_qp_offset=-2 / threads=22 / lookahead_threads=1 / sliced_threads=0 / nr=0 / decimate=1 / interlaced=0 / bluray_compat=0 / constrained_intra=0 / bframes=3 / b_pyramid=2 / b_adapt=1 / b_bias=0 / direct=3 / weightb=1 / open_gop=0 / weightp=2 / keyint=240 / keyint_min=24 / scenecut=40 / intra_refresh=0 / rc_lookahead=50 / rc=2pass / mbtree=1 / bitrate=4745 / ratetol=1.0 / qcomp=0.60 / qpmin=0 / qpmax=69 / qpstep=4 / cplxblur=20.0 / qblur=0.5 / ip_ratio=1.40 / aq=1:1.00
    / I5 w" w' T! `. `- ^& q
  25. Language                                 : English8 Z& P+ p. c$ W; H0 ~
  26. Default                                  : Yes
    5 n: p/ N2 Y7 g! l. p+ }" v
  27. Forced                                   : No( Y* i4 U  `( Z  A5 k" ^

  28. ! K( b0 ^' [9 R2 d* ]6 l
  29. Audio
    ( ?$ g+ i2 B. A" J. [# z
  30. ID                                       : 2' ]0 F) K9 u# }& X1 B9 g3 j) `
  31. Format                                   : AC-3# m! m# }3 w$ l$ }4 M$ ?6 s* }
  32. Format/Info                              : Audio Coding 3& z& Q/ N; I' k( p- t
  33. Commercial name                          : Dolby Digital
      i" C$ @# p( U
  34. Codec ID                                 : A_AC3, L4 c& [: }& r+ Z8 I# g
  35. Duration                                 : 1 h 30 min: m" _0 T' w$ C7 m/ A6 g& s9 Z
  36. Bit rate mode                            : Constant6 z2 n6 G% j" E2 M! u* Q7 R
  37. Bit rate                                 : 448 kb/s* f% W' h* q% a/ U" s" Q
  38. Channel(s)                               : 6 channels
    & _' C- w( {+ O& h5 A" X5 R1 X# u
  39. Channel layout                           : L R C LFE Ls Rs
    5 s& C! V4 A! u  }, W
  40. Sampling rate                            : 48.0 kHz
      v2 P9 }0 _0 c6 O0 k
  41. Frame rate                               : 31.250 FPS (1536 SPF)3 e/ u. S/ z' D, v% N% I  S5 A
  42. Bit depth                                : 16 bits6 D0 G4 c$ J2 z" \
  43. Compression mode                         : Lossy
    4 j# @/ q# h; k! L5 U* @
  44. Stream size                              : 289 MiB (9%): \& ?# E, O2 k1 X& R
  45. Language                                 : English
    8 V% p$ @, M" L8 f/ w
  46. Service kind                             : Complete Main
    ( X' r+ G. v' J! v' G7 o
  47. Default                                  : Yes" N! ]7 u6 b4 h( u
  48. Forced                                   : No
    ( ]- ?, @9 Z& ?0 Y+ D

  49. $ w! U. G0 x+ }. q
  50. Text
    / }/ |* q  W# h. Q0 R& R$ F
  51. ID                                       : 39 x/ g8 J! q! v( e
  52. Format                                   : UTF-8
    ; C& d8 P6 R. a+ g9 W1 G
  53. Codec ID                                 : S_TEXT/UTF8
    2 s2 k5 v% a$ K& `! ]8 K
  54. Codec ID/Info                            : UTF-8 Plain Text
    4 @" @8 M- ~: Y5 x6 ~4 k" D
  55. Duration                                 : 1 min 42 s9 s$ ~' b) O: O; p9 T8 ^
  56. Bit rate                                 : 66 b/s3 n* e# M  Y; B6 t8 v" i
  57. Count of elements                        : 202 ~* c  Q4 E- n4 c( B
  58. Stream size                              : 853 Bytes (0%)
    % s2 e. D$ {# f$ J) s  e* r$ _
  59. Title                                    : English
    ) _, H. [" h4 `4 ~
  60. Language                                 : English9 J: @1 ]$ b% o; _1 s
  61. Default                                  : Yes
    $ G& t4 m2 B6 L1 T1 g8 u% `) j" E+ J
  62. Forced                                   : Yes9 @1 N4 o- P' G/ `4 r
  63. + u9 }! I3 y. K4 r8 u" K8 r
  64. Menu/ C( D. Z% @; o/ o4 H" p
  65. 00:00:00.000                             : en:00:00:00.000: t2 |9 t2 S" D' `& C5 f5 [7 t
  66. 00:05:52.352                             : en:00:05:52.3522 l' t4 G( K9 Q- Z" [2 d1 w' ^% h
  67. 00:12:17.153                             : en:00:12:17.153
    ) {1 M4 c* ^6 y0 U+ O
  68. 00:20:01.117                             : en:00:20:01.117' z8 I6 d& D! q* E' }! c8 }
  69. 00:25:39.705                             : en:00:25:39.705' E( n7 K; D: o+ q' L8 G; A( ^# h
  70. 00:32:24.276                             : en:00:32:24.2768 e& Q$ s- ^$ N/ ]7 x
  71. 00:39:17.230                             : en:00:39:17.230) |* t3 O6 l# ?  Q8 e) K9 a
  72. 00:44:43.014                             : en:00:44:43.0147 j. q9 R% W- M0 U7 O+ r3 e
  73. 00:54:23.510                             : en:00:54:23.510
    ' z8 U; {; O$ r
  74. 01:03:33.143                             : en:01:03:33.143
    % W8 S# [4 ?$ @0 J0 U& y6 J  R, ]# A
  75. 01:09:05.475                             : en:01:09:05.475: ~% l" z; l  N3 u
  76. 01:13:14.140                             : en:01:13:14.140
    - d3 B! [1 C- j8 g' i& c
  77. 01:19:40.192                             : en:01:19:40.192
    " R' Y; L3 ~- \# _6 f7 b" m& j
  78. 01:27:50.265                             : en:01:27:50.265
复制代码
) z  V; L: i; C. D5 `6 G% M
泰布机密 Tab.Hunter.Confidential.2015.720p.BluRay.x264-REGRET 3.28GB-2.png
( n' ~" m6 h% M/ W4 f3 g! h0 T+ ^
3 d+ {2 s* N; p8 ?; z' F1 }% s0 B) L& X/ Y3 f- M7 q$ q" U
+ x' s. I3 S- @( ~- j9 g. y+ E
& D: U# g1 Y& j% p
( Z# [3 \) ?8 q. s

2 C  }$ o. V3 V3 X4 X6 ~7 Y% ?% k' \2 F4 b) G+ {- @
VIP会员免费任意下载本站所有资源!---点击开通
回复

使用道具 举报

级别:一举成名 Lv.7

注册时间
2019-4-24
最后登录
2019-11-14
听众
13
收听
0
主题
0
蓝光币
194 枚
贡献
0 点
发表于 7 天前 | 显示全部楼层
楼主发贴辛苦了,谢谢楼主分享!我觉得中国高清电影网是注册对了!
VIP会员免费任意下载本站所有资源!---点击开通
回复

使用道具 举报

级别:群众演员 Lv.3

注册时间
2018-1-26
最后登录
2019-11-15
听众
3
收听
0
主题
0
蓝光币
3 枚
贡献
0 点
发表于 前天 20:26 | 显示全部楼层
██████在-线-看-片bxxp7.c o m 】██████
$ O1 Z+ G0 {) j# R1 s
" s1 `3 [0 q8 v██████在-线-看-片
bxxp7.c o m 】██████
/ Z: [! s. i; ~) ^3 l* X
7 v( J8 I% K+ X+ T& p7 k1 v( J: [% L██████在-线-看-片
bxxp7.c o m 】██████# r; i, H: ^2 w; ?

6 y7 U" Q" b4 @+ C' O" E3 [- \██████在-线-看-片
bxxp7.c o m 】██████
$ ~! K4 O) d& a9 U  U, r( t* {3 l* r1 s3 Z$ t0 O
██████在-线-看-片
bxxp7.c o m 】██████3 F; f9 A5 u2 `9 L1 K
( F, u) v* Z6 f! J( ?* W
██████在-线-看-片
bxxp7.c o m 】██████
4 ?, j# z0 t9 o5 ^7 X. P3 E. Z8 z' S: [% m: B- h
██████在-线-看-片
bxxp7.c o m 】██████
VIP会员免费任意下载本站所有资源!---点击开通
回复

使用道具 举报

懒得打字嘛,点击右侧快捷回复 【右侧内容,后台自定义】
您需要登录后才可以回帖 登录 | 立即注册

本版积分规则

QQ|Archiver|手机版|小黑屋| 中国高清网 |网站地图 

GMT+8, 2019-11-15 10:34 , Processed in 0.296249 second(s), 37 queries .

Powered by HDchina X3.4

Copyright 2017-2019©HDchina.All right reserved

返回顶部 联系我们