查看: 29|回复: 1

[纪录片] 泰布机密 Tab.Hunter.Confidential.2015.1080p.BluRay.x264-REGRET 6.57GB

[复制链接]

 成长值: 3160

级别:资源管理组

注册时间
2017-10-20
最后登录
2019-11-11
听众
1
收听
0
主题
86761
蓝光币
61811 枚
贡献
11119 点
发表于 2019-11-7 20:38:12 | 显示全部楼层 |阅读模式
泰布机密 Tab.Hunter.Confidential.2015.1080p.BluRay.x264-REGRET 6.57GB-1.png

译  名 泰布机密
片  名 Tab Hunter Confidential
年  代 2015
产  地 美国
类  别 记载片 / 同性
语  言 英语
上映日期 2015-03-15(美国)
IMDb评分  7.7/10 from 2861 users
IMDb链接  https://www.imdb.com/title/tt1533089
豆瓣评分 7.5/10 from 70 users
豆瓣链接 https://movie.douban.com/subject/5162118/
片  长 90分钟
导  演 Jeffrey Schwarz
主  演 泰布·亨特 Tab Hunter
       娜塔利·伍德 Natalie Wood
       克林特·伊斯特伍德 Clint Eastwood
       保罗·纽曼 Paul Newman
       黛比·雷诺斯 Debbie Reynolds
       安东尼·博金斯 Anthony Perkins
       竹井乔治 George Takei


标  签 记载片 | 美国 | 列传 | 同性 | 2015 | Documentary | LGBT | 电影

简  介  

  The story of matinee idol Tab Hunter from teenage stable boy to closeted Hollywood star of the 1950s.
  1. Video
  2. ID                                       : 1
  3. Format                                   : AVC
  4. Format/Info                              : Advanced Video Codec
  5. Format profile                           : High@L4
  6. Format settings                          : CABAC / 4 Ref Frames
  7. Format settings, CABAC                   : Yes
  8. Format settings, Reference frames        : 4 frames
  9. Codec ID                                 : V_MPEG4/ISO/AVC
  10. Duration                                 : 1 h 30 min
  11. Bit rate                                 : 9 945 kb/s
  12. Width                                    : 1 920 pixels
  13. Height                                   : 1 080 pixels
  14. Display aspect ratio                     : 16:9
  15. Frame rate mode                          : Constant
  16. Frame rate                               : 23.976 (24000/1001) FPS
  17. Color space                              : YUV
  18. Chroma subsampling                       : 4:2:0
  19. Bit depth                                : 8 bits
  20. Scan type                                : Progressive
  21. Bits/(Pixel*Frame)                       : 0.200
  22. Stream size                              : 6.28 GiB (96%)
  23. Writing library                          : x264 core 158 r2984 3759fcb
  24. Encoding settings                        : cabac=1 / ref=4 / deblock=1:-3:-3 / analyse=0x3:0x133 / me=umh / subme=9 / psy=1 / psy_rd=1.00:0.00 / mixed_ref=1 / me_range=16 / chroma_me=1 / trellis=2 / 8x8dct=1 / cqm=0 / deadzone=21,11 / fast_pskip=0 / chroma_qp_offset=-2 / threads=24 / lookahead_threads=2 / sliced_threads=0 / nr=0 / decimate=1 / interlaced=0 / bluray_compat=0 / constrained_intra=0 / bframes=3 / b_pyramid=2 / b_adapt=1 / b_bias=0 / direct=3 / weightb=1 / open_gop=0 / weightp=2 / keyint=240 / keyint_min=24 / scenecut=40 / intra_refresh=0 / rc_lookahead=50 / rc=2pass / mbtree=1 / bitrate=9945 / ratetol=1.0 / qcomp=0.60 / qpmin=0 / qpmax=69 / qpstep=4 / cplxblur=20.0 / qblur=0.5 / ip_ratio=1.40 / aq=1:1.00
  25. Language                                 : English
  26. Default                                  : Yes
  27. Forced                                   : No

  28. Audio
  29. ID                                       : 2
  30. Format                                   : AC-3
  31. Format/Info                              : Audio Coding 3
  32. Commercial name                          : Dolby Digital
  33. Codec ID                                 : A_AC3
  34. Duration                                 : 1 h 30 min
  35. Bit rate mode                            : Constant
  36. Bit rate                                 : 448 kb/s
  37. Channel(s)                               : 6 channels
  38. Channel layout                           : L R C LFE Ls Rs
  39. Sampling rate                            : 48.0 kHz
  40. Frame rate                               : 31.250 FPS (1536 SPF)
  41. Bit depth                                : 16 bits
  42. Compression mode                         : Lossy
  43. Stream size                              : 289 MiB (4%)
  44. Language                                 : English
  45. Service kind                             : Complete Main
  46. Default                                  : Yes
  47. Forced                                   : No

  48. Text
  49. ID                                       : 3
  50. Format                                   : UTF-8
  51. Codec ID                                 : S_TEXT/UTF8
  52. Codec ID/Info                            : UTF-8 Plain Text
  53. Duration                                 : 1 min 42 s
  54. Bit rate                                 : 66 b/s
  55. Count of elements                        : 20
  56. Stream size                              : 853 Bytes (0%)
  57. Title                                    : English
  58. Language                                 : English
  59. Default                                  : Yes
  60. Forced                                   : Yes

  61. Menu
  62. 00:00:00.000                             : en:00:00:00.000
  63. 00:05:52.352                             : en:00:05:52.352
  64. 00:12:17.153                             : en:00:12:17.153
  65. 00:20:01.117                             : en:00:20:01.117
  66. 00:25:39.705                             : en:00:25:39.705
  67. 00:32:24.276                             : en:00:32:24.276
  68. 00:39:17.230                             : en:00:39:17.230
  69. 00:44:43.014                             : en:00:44:43.014
  70. 00:54:23.510                             : en:00:54:23.510
  71. 01:03:33.143                             : en:01:03:33.143
  72. 01:09:05.475                             : en:01:09:05.475
  73. 01:13:14.140                             : en:01:13:14.140
  74. 01:19:40.192                             : en:01:19:40.192
  75. 01:27:50.265                             : en:01:27:50.265
复制代码

泰布机密 Tab.Hunter.Confidential.2015.1080p.BluRay.x264-REGRET 6.57GB-2.png







VIP会员免费任意下载本站所有资源!---点击开通
回复

使用道具 举报

级别:一举成名 Lv.7

注册时间
2019-4-24
最后登录
2019-11-14
听众
13
收听
0
主题
0
蓝光币
194 枚
贡献
0 点
发表于 7 天前 | 显示全部楼层
楼主发贴辛苦了,谢谢楼主分享!我觉得中国高清电影网是注册对了!
VIP会员免费任意下载本站所有资源!---点击开通
回复

使用道具 举报

懒得打字嘛,点击右侧快捷回复 【右侧内容,后台自定义】
您需要登录后才可以回帖 登录 | 立即注册

本版积分规则

QQ|Archiver|手机版|小黑屋| 中国高清网 |网站地图 

GMT+8, 2019-11-15 07:27 , Processed in 0.226577 second(s), 37 queries .

Powered by HDchina X3.4

Copyright 2017-2019©HDchina.All right reserved

返回顶部 联系我们