查看: 14|回复: 0

[喜剧片] 妙人妙计/异想天开 Dont.Raise.the.Bridge.Lower.the.River.1968.1080p.WEBRip.x264-RARBG 1.90GB

[复制链接]

 成长值: 3160

级别:资源管理组

注册时间
2017-10-20
最后登录
2019-11-11
听众
1
收听
0
主题
86761
蓝光币
61817 枚
贡献
11119 点
发表于 2019-11-7 20:37:07 | 显示全部楼层 |阅读模式
妙人奇策/异想天开 Dont.Raise.the.Bridge.Lower.the.River.1968.1080p.WEBRip.x264-RARBG 1.90GB-1.png

译  名 妙人奇策 / 异想天开 / 荒谬奇策俏娇妻
片  名 Don't Raise the Bridge, Lower the River
年  代 1968
产  地 英国
类  别 笑剧
语  言 英语
上映日期 1968-06-24
IMDb评分  4.8/10 from 511 users
IMDb链接  https://www.imdb.com/title/tt0061591
豆瓣评分 0/10 from 0 users
豆瓣链接 https://movie.douban.com/subject/1294822/
片  长 USA: 99 分钟
导  演 杰里 帕里斯 (Jerry Paris)
编  剧 Max Wilk
主  演 Jerry Lewis
       Terry-Thomas
       Jacqueline Pearce


标  签 黑色诙谐 | 英国 | 正大戏院 | 无厘头 | WoodyAllen | 典范老片 | 恋爱 | 搞笑

简  介  

  An American plans to bilk the British out of some considerable money with the help of an English con artist.
  1. Video
  2. ID                                       : 1
  3. Format                                   : AVC
  4. Format/Info                              : Advanced Video Codec
  5. Format profile                           : High@L4
  6. Format settings                          : CABAC / 4 Ref Frames
  7. Format settings, CABAC                   : Yes
  8. Format settings, Reference frames        : 4 frames
  9. Codec ID                                 : avc1
  10. Codec ID/Info                            : Advanced Video Coding
  11. Duration                                 : 1 h 39 min
  12. Bit rate                                 : 2 500 kb/s
  13. Width                                    : 1 920 pixels
  14. Height                                   : 1 080 pixels
  15. Display aspect ratio                     : 16:9
  16. Frame rate mode                          : Constant
  17. Frame rate                               : 23.976 (23976/1000) FPS
  18. Color space                              : YUV
  19. Chroma subsampling                       : 4:2:0
  20. Bit depth                                : 8 bits
  21. Scan type                                : Progressive
  22. Bits/(Pixel*Frame)                       : 0.050
  23. Stream size                              : 1.74 GiB (92%)
  24. Writing library                          : x264 core 152 r2851M ba24899
  25. Encoding settings                        : cabac=1 / ref=4 / deblock=1:-1:-1 / analyse=0x3:0x113 / me=umh / subme=9 / psy=1 / psy_rd=1.00:0.15 / mixed_ref=1 / me_range=24 / chroma_me=1 / trellis=2 / 8x8dct=1 / cqm=0 / deadzone=21,11 / fast_pskip=1 / chroma_qp_offset=-3 / threads=16 / lookahead_threads=4 / sliced_threads=0 / nr=0 / decimate=1 / interlaced=0 / bluray_compat=0 / constrained_intra=0 / bframes=3 / b_pyramid=2 / b_adapt=2 / b_bias=0 / direct=3 / weightb=1 / open_gop=0 / weightp=2 / keyint=250 / keyint_min=25 / scenecut=40 / intra_refresh=0 / rc_lookahead=50 / rc=2pass / mbtree=1 / bitrate=2500 / ratetol=1.0 / qcomp=0.60 / qpmin=0 / qpmax=69 / qpstep=4 / cplxblur=20.0 / qblur=0.5 / vbv_maxrate=31250 / vbv_bufsize=31250 / nal_hrd=none / filler=0 / ip_ratio=1.40 / aq=3:1.00
  26. Encoded date                             : UTC 2019-11-06 19:45:32
  27. Tagged date                              : UTC 2019-11-06 19:45:32
  28. Codec configuration box                  : avcC

  29. Audio
  30. ID                                       : 2
  31. Format                                   : AAC LC
  32. Format/Info                              : Advanced Audio Codec Low Complexity
  33. Codec ID                                 : mp4a-40-2
  34. Duration                                 : 1 h 39 min
  35. Bit rate mode                            : Constant
  36. Bit rate                                 : 224 kb/s
  37. Channel(s)                               : 2 channels
  38. Channel layout                           : L R
  39. Sampling rate                            : 48.0 kHz
  40. Frame rate                               : 46.875 FPS (1024 SPF)
  41. Compression mode                         : Lossy
  42. Stream size                              : 160 MiB (8%)
  43. Language                                 : English
  44. Default                                  : Yes
  45. Alternate group                          : 1
  46. Encoded date                             : UTC 2019-11-06 19:45:32
  47. Tagged date                              : UTC 2019-11-06 19:45:32
复制代码

妙人奇策/异想天开 Dont.Raise.the.Bridge.Lower.the.River.1968.1080p.WEBRip.x264-RARBG 1.90GB-2.png 妙人奇策/异想天开 Dont.Raise.the.Bridge.Lower.the.River.1968.1080p.WEBRip.x264-RARBG 1.90GB-3.png 妙人奇策/异想天开 Dont.Raise.the.Bridge.Lower.the.River.1968.1080p.WEBRip.x264-RARBG 1.90GB-4.png







VIP会员免费任意下载本站所有资源!---点击开通
回复

使用道具 举报

懒得打字嘛,点击右侧快捷回复 【右侧内容,后台自定义】
您需要登录后才可以回帖 登录 | 立即注册

本版积分规则

QQ|Archiver|手机版|小黑屋| 中国高清网 |网站地图 

GMT+8, 2019-11-15 08:16 , Processed in 0.235514 second(s), 37 queries .

Powered by HDchina X3.4

Copyright 2017-2019©HDchina.All right reserved

返回顶部 联系我们