查看: 7|回复: 0

[剧情片] 圣诞星 The.Christmas.Star.1986.1080p.WEBRip.x264-RARBG 1.79GB

[复制链接]

 成长值: 3140

级别:资源管理组

注册时间
2017-10-20
最后登录
2019-11-11
听众
1
收听
0
主题
86761
蓝光币
61613 枚
贡献
11119 点
发表于 6 天前 | 显示全部楼层 |阅读模式
圣诞星 The.Christmas.Star.1986.1080p.WEBRip.x264-RARBG 1.79GB-1.png

译  名 圣诞星
片  名 The Christmas Star
年  代 1986
产  地 美国
类  别 剧情
语  言 英语
上映日期 1986
IMDb评分  6.5/10 from 293 users
IMDb链接  https://www.imdb.com/title/tt0090840
豆瓣评分 0/10 from 0 users
豆瓣链接 https://movie.douban.com/subject/5048258/
片  长 94分钟
导  演 Alan Shapiro
编  剧 Carol Dysinger
主  演 爱德华·阿斯纳
       雷内·奥博诺伊斯


简  介  

  故事是关于一位在监服刑的 Horace McNickle ,他由于捏造而被判刑,可是在圣诞节的前夜,他居然化装成圣诞老人逃窜了!这完全归功于他那蓄留的一把白胡子,让他居然就这样骗太重重保镳,逃窜成功。为了躲避差人的追捕,Horace McNickle 在郊区隐藏起来,不意却被当地的两个小朋友 Billy 与 Trudy 给发现了,两位小朋友居然以为他是实在的圣诞老公公,和他成了好朋友,Horace McNickle 在他们帮助下藏匿在百货公司,这段时代他也逐步被暖和的人情给感动,渐渐领会到圣诞节的真理。但另一方面,警方的行动也仍然停止,找来当初追捕 Horace McNickle 的 Waters 警官,原本 Waters 警官正要伴随家人一路去渡圣诞假期,却被告急召回履利用命,终究他循线清查到 Horace McNickle 的踪影,看来他这位伪装圣诞老人的实在成分就要曝光了……
  1. Video
  2. ID                                       : 1
  3. Format                                   : AVC
  4. Format/Info                              : Advanced Video Codec
  5. Format profile                           : High@L4
  6. Format settings                          : CABAC / 4 Ref Frames
  7. Format settings, CABAC                   : Yes
  8. Format settings, Reference frames        : 4 frames
  9. Codec ID                                 : avc1
  10. Codec ID/Info                            : Advanced Video Coding
  11. Duration                                 : 1 h 33 min
  12. Bit rate                                 : 2 500 kb/s
  13. Width                                    : 1 440 pixels
  14. Height                                   : 1 080 pixels
  15. Display aspect ratio                     : 4:3
  16. Frame rate mode                          : Constant
  17. Frame rate                               : 23.976 (23976/1000) FPS
  18. Color space                              : YUV
  19. Chroma subsampling                       : 4:2:0
  20. Bit depth                                : 8 bits
  21. Scan type                                : Progressive
  22. Bits/(Pixel*Frame)                       : 0.067
  23. Stream size                              : 1.64 GiB (92%)
  24. Writing library                          : x264 core 152 r2851M ba24899
  25. Encoding settings                        : cabac=1 / ref=4 / deblock=1:-1:-1 / analyse=0x3:0x113 / me=umh / subme=9 / psy=1 / psy_rd=1.00:0.15 / mixed_ref=1 / me_range=24 / chroma_me=1 / trellis=2 / 8x8dct=1 / cqm=0 / deadzone=21,11 / fast_pskip=1 / chroma_qp_offset=-3 / threads=16 / lookahead_threads=4 / sliced_threads=0 / nr=0 / decimate=1 / interlaced=0 / bluray_compat=0 / constrained_intra=0 / bframes=3 / b_pyramid=2 / b_adapt=2 / b_bias=0 / direct=3 / weightb=1 / open_gop=0 / weightp=2 / keyint=250 / keyint_min=25 / scenecut=40 / intra_refresh=0 / rc_lookahead=50 / rc=2pass / mbtree=1 / bitrate=2500 / ratetol=1.0 / qcomp=0.60 / qpmin=0 / qpmax=69 / qpstep=4 / cplxblur=20.0 / qblur=0.5 / vbv_maxrate=31250 / vbv_bufsize=31250 / nal_hrd=none / filler=0 / ip_ratio=1.40 / aq=3:1.00
  26. Encoded date                             : UTC 2019-11-06 20:17:30
  27. Tagged date                              : UTC 2019-11-06 20:17:30
  28. Codec configuration box                  : avcC

  29. Audio
  30. ID                                       : 2
  31. Format                                   : AAC LC
  32. Format/Info                              : Advanced Audio Codec Low Complexity
  33. Codec ID                                 : mp4a-40-2
  34. Duration                                 : 1 h 33 min
  35. Duration_LastFrame                       : -11 ms
  36. Bit rate mode                            : Constant
  37. Bit rate                                 : 224 kb/s
  38. Channel(s)                               : 2 channels
  39. Channel layout                           : L R
  40. Sampling rate                            : 48.0 kHz
  41. Frame rate                               : 46.875 FPS (1024 SPF)
  42. Compression mode                         : Lossy
  43. Stream size                              : 150 MiB (8%)
  44. Language                                 : English
  45. Default                                  : Yes
  46. Alternate group                          : 1
  47. Encoded date                             : UTC 2019-11-06 20:17:30
  48. Tagged date                              : UTC 2019-11-06 20:17:30
复制代码

圣诞星 The.Christmas.Star.1986.1080p.WEBRip.x264-RARBG 1.79GB-2.png 圣诞星 The.Christmas.Star.1986.1080p.WEBRip.x264-RARBG 1.79GB-3.png 圣诞星 The.Christmas.Star.1986.1080p.WEBRip.x264-RARBG 1.79GB-4.png






VIP会员免费任意下载本站所有资源!---点击开通
回复

使用道具 举报

懒得打字嘛,点击右侧快捷回复 【右侧内容,后台自定义】
您需要登录后才可以回帖 登录 | 立即注册

本版积分规则

QQ|Archiver|手机版|小黑屋| 中国高清网 |网站地图 

GMT+8, 2019-11-13 17:05 , Processed in 24.510337 second(s), 37 queries .

Powered by HDchina X3.4

Copyright 2017-2019©HDchina.All right reserved

返回顶部 联系我们