查看: 56|回复: 1

[剧情片] 鬼磨坊/克拉伯特 Krabat.2008.1080p.BluRay.x264-FLHD 8.73GB

[复制链接]

 成长值: 3160

级别:资源管理组

注册时间
2017-10-20
最后登录
2019-11-15
听众
1
收听
0
主题
86768
蓝光币
61946 枚
贡献
11126 点
发表于 2019-11-7 11:51:06 | 显示全部楼层 |阅读模式
鬼磨坊/克拉伯特 Krabat.2008.1080p.BluRay.x264-FLHD 8.73GB-1.png

译  名 鬼磨坊 / 克拉伯特
片  名 Krabat
年  代 2008
产  地 德国
类  别 剧情 / 惊悚 / 奇异
语  言 德语
上映日期 2008-09-07
IMDb评分  6.1/10 from 5925 users
IMDb链接  https://www.imdb.com/title/tt0772181
豆瓣评分 6.2/10 from 1623 users
豆瓣链接 https://movie.douban.com/subject/1987408/
片  长 120 分钟
导  演 Marco Kreuzpaintner
编  剧 Michael Gutmann / Marco Kreuzpaintner
主  演 David Kross
       Daniel Brühl
       Christian Redl
       Robert Stadlober


标  签 德国 | 魔幻 | 奇异 | 德国电影 | 鬼磨坊 | 可骇 | 2008 | 电影

简  介  

  本片报告少年克拉巴特与邪恶的磨坊徒弟斗法的故事。由于怙恃双双死于瘟疫,14岁的克拉巴特(大卫?克劳斯 David Kross 饰)沦为小乞丐。接连好几天早晨,他都做了一个希奇的梦,梦里的乌鸦呼唤他去往黑昆仑的磨坊。因而他依照梦的指示到了磨坊,并被左眼蒙着一块黑色皮罩的磨坊徒弟(克里斯蒂安?雷德尔 Christian Redl)收留,还结交了磨坊里的学徒们。佟达(丹尼尔?布鲁赫 Daniel Brühl 饰)作为学徒里的领班,对年数最小的克拉巴特照顾有加,帮助他获得了磨坊徒弟以及其他学徒们的认可。本来磨坊徒弟是一个黑魔法师,虽然一向教授学徒们魔法,但每到新年的前一天,城市发生一件可怕的工作,而这一年佟达不幸摔死。渐渐地,克拉巴特发现了佟达灭亡的真正缘由,他决心以习得的魔法匹敌邪恶势力……
  电影改编自德国作家奥得弗雷德?普鲁士勒的同名小说,少年克拉巴特以其勇敢与邪恶势力斗争的形象而家喻户晓。
  1. Video
  2. ID                                       : 1
  3. Format                                   : AVC
  4. Format/Info                              : Advanced Video Codec
  5. Format profile                           : High@L4
  6. Format settings                          : CABAC / 5 Ref Frames
  7. Format settings, CABAC                   : Yes
  8. Format settings, Reference frames        : 5 frames
  9. Codec ID                                 : V_MPEG4/ISO/AVC
  10. Duration                                 : 1 h 59 min
  11. Bit rate                                 : 8 909 kb/s
  12. Width                                    : 1 920 pixels
  13. Height                                   : 816 pixels
  14. Display aspect ratio                     : 2.35:1
  15. Frame rate mode                          : Constant
  16. Frame rate                               : 24.000 FPS
  17. Color space                              : YUV
  18. Chroma subsampling                       : 4:2:0
  19. Bit depth                                : 8 bits
  20. Scan type                                : Progressive
  21. Bits/(Pixel*Frame)                       : 0.237
  22. Stream size                              : 7.29 GiB (84%)
  23. Writing library                          : x264 core 67 r1134M b8808bf
  24. Encoding settings                        : cabac=1 / ref=5 / deblock=1:-1:-1 / analyse=0x3:0x113 / me=umh / subme=7 / psy_rd=1.0:0.0 / mixed_ref=1 / me_range=16 / chroma_me=1 / trellis=2 / 8x8dct=1 / cqm=0 / deadzone=21,11 / chroma_qp_offset=-2 / threads=6 / nr=0 / decimate=1 / mbaff=0 / bframes=3 / b_pyramid=0 / b_adapt=2 / b_bias=0 / direct=3 / wpredb=1 / keyint=250 / keyint_min=25 / scenecut=40 / rc=2pass / bitrate=8909 / ratetol=1.0 / qcomp=0.60 / qpmin=10 / qpmax=51 / qpstep=4 / cplxblur=20.0 / qblur=0.5 / vbv_maxrate=50000 / vbv_bufsize=50000 / ip_ratio=1.40 / pb_ratio=1.30 / aq=1:1.00
  25. Language                                 : German
  26. Default                                  : Yes
  27. Forced                                   : No

  28. Audio
  29. ID                                       : 2
  30. Format                                   : DTS
  31. Format/Info                              : Digital Theater Systems
  32. Codec ID                                 : A_DTS
  33. Duration                                 : 1 h 59 min
  34. Bit rate mode                            : Constant
  35. Bit rate                                 : 1 509 kb/s
  36. Channel(s)                               : 6 channels
  37. Channel layout                           : C L R Ls Rs LFE
  38. Sampling rate                            : 48.0 kHz
  39. Frame rate                               : 93.750 FPS (512 SPF)
  40. Bit depth                                : 16 bits
  41. Compression mode                         : Lossy
  42. Stream size                              : 1.26 GiB (14%)
  43. Language                                 : German
  44. Default                                  : Yes
  45. Forced                                   : No

  46. Text
  47. ID                                       : 3
  48. Format                                   : UTF-8
  49. Codec ID                                 : S_TEXT/UTF8
  50. Codec ID/Info                            : UTF-8 Plain Text
  51. Language                                 : English
  52. Default                                  : Yes
  53. Forced                                   : No
复制代码

鬼磨坊/克拉伯特 Krabat.2008.1080p.BluRay.x264-FLHD 8.73GB-2.png 鬼磨坊/克拉伯特 Krabat.2008.1080p.BluRay.x264-FLHD 8.73GB-3.png 鬼磨坊/克拉伯特 Krabat.2008.1080p.BluRay.x264-FLHD 8.73GB-4.png







VIP会员免费任意下载本站所有资源!---点击开通
回复

使用道具 举报

级别:一举成名 Lv.7

注册时间
2019-4-24
最后登录
2019-11-14
听众
13
收听
0
主题
0
蓝光币
194 枚
贡献
0 点
发表于 2019-11-7 12:25:03 | 显示全部楼层
楼主发贴辛苦了,谢谢楼主分享!我觉得中国高清电影网是注册对了!
VIP会员免费任意下载本站所有资源!---点击开通
回复

使用道具 举报

懒得打字嘛,点击右侧快捷回复 【右侧内容,后台自定义】
您需要登录后才可以回帖 登录 | 立即注册

本版积分规则

QQ|Archiver|手机版|小黑屋| 中国高清网 |网站地图 

GMT+8, 2019-11-15 20:10 , Processed in 0.267452 second(s), 37 queries .

Powered by HDchina X3.4

Copyright 2017-2019©HDchina.All right reserved

返回顶部 联系我们