查看: 30|回复: 0

[动画片] 狮子王/狮子王真人版 The.Lion.King.2019.3D.1080p.BluRay.x264-GUACAMOLE 9.84GB

[复制链接]

 成长值: 3160

级别:资源管理组

注册时间
2017-10-20
最后登录
2019-11-11
听众
1
收听
0
主题
86761
蓝光币
61857 枚
贡献
11119 点
发表于 2019-11-7 11:49:35 | 显示全部楼层 |阅读模式
狮子王/狮子王真人版 The.Lion.King.2019.3D.1080p.BluRay.x264-GUACAMOLE 9.84GB-1.png

译  名 狮子王 / 狮子王真人版 / 狮子王实在版 / 狮子王真狮版
片  名 The Lion King
年  代 2019
产  地 美国
类  别 剧情 / 动画 / 冒险
语  言 英语 / 科萨语
上映日期 2019-07-12(中国大陆) / 2019-07-19(美国)
IMDb评分  7.1/10 from 104480 users
IMDb链接  http://www.imdb.com/title/tt6105098
豆瓣评分 7.4/10 from 196500 users
豆瓣链接 https://movie.douban.com/subject/26884354/
片  长 118分钟
导  演 乔恩·费儒 Jon Favreau
编  剧 杰夫·内桑森 Jeff Nathanson / 布兰达?查普曼 Brenda Chapman / 艾琳·梅琪 Irene Mecchi / 乔纳森·罗伯茨 Jonathan Roberts / 琳达·伍尔芙顿 Linda Woolverton
主  演 唐纳德·格洛弗 Donald Glover
       阿尔法·伍达德 Alfre Woodard
       詹姆斯·厄尔·琼斯 James Earl Jones
       切瓦特·埃加福特 Chiwetel Ejiofor
       科甘-迈克尔·凯 Keegan-Michael Key
       塞斯·罗根 Seth Rogen
       比利·艾希纳 Billy Eichner
       碧昂丝·诺尔斯 Beyoncé Knowles
       埃里克·安德烈 Eric André
       弗洛伦丝·卡松巴 Florence Kasumba
       约翰·卡尼 John Kani
       约翰·奥利弗 John Oliver
       艾米·塞德丽丝 Amy Sedaris


标  签 迪士尼 | 典范 | 动画 | 童年 | 美国 | 长大 | 2019 | 动物

简  介  

  非洲大草原上一轮红日冉冉升起,为高峻的乞力马扎罗山披上层金色的光纱,一切的动物涌向了同一个地方——光荣石,兴奋地期待着一个严重消息的公布:它们的国王木法沙将迎来自己的新生儿。
  这个新生儿就是小狮子辛巴,它是木法沙的法定接棒人、光荣石未来的国王。
  小狮子王辛巴在众多热情的朋友的陪伴下,不单履历了生射中最名誉的时辰,也遭受了最艰难的应战,最初终究成为了森林之王,也在循环往复生生不息的自然中体味诞生命的真义。

获奖情况  

  第5届豆瓣电影年度榜单(2018)
  最值得期待的外语电影(提名)
  1. Video
  2. ID                                       : 1
  3. Format                                   : AVC
  4. Format/Info                              : Advanced Video Codec
  5. Format profile                           : High@L4
  6. MultiView_Count                          : 2
  7. MultiView_Layout                         : Side by Side (left eye first)
  8. Format settings                          : CABAC / 4 Ref Frames
  9. Format settings, CABAC                   : Yes
  10. Format settings, Reference frames        : 4 frames
  11. Codec ID                                 : V_MPEG4/ISO/AVC
  12. Duration                                 : 1 h 58 min
  13. Bit rate                                 : 10.4 Mb/s
  14. Width                                    : 1 920 pixels
  15. Height                                   : 1 080 pixels
  16. Display aspect ratio                     : 16:9
  17. Frame rate mode                          : Constant
  18. Frame rate                               : 23.976 FPS
  19. Color space                              : YUV
  20. Chroma subsampling                       : 4:2:0
  21. Bit depth                                : 8 bits
  22. Scan type                                : Progressive
  23. Bits/(Pixel*Frame)                       : 0.209
  24. Stream size                              : 8.58 GiB (87%)
  25. Writing library                          : x264 core 157 r2969 d4099dd
  26. Encoding settings                        : cabac=1 / ref=4 / deblock=1:-1:-1 / analyse=0x3:0x113 / me=umh / subme=8 / psy=1 / psy_rd=1.00:0.00 / mixed_ref=1 / me_range=16 / chroma_me=1 / trellis=2 / 8x8dct=1 / cqm=0 / deadzone=21,11 / fast_pskip=0 / chroma_qp_offset=-2 / threads=34 / lookahead_threads=5 / sliced_threads=0 / nr=0 / decimate=1 / interlaced=0 / bluray_compat=0 / constrained_intra=0 / bframes=5 / b_pyramid=2 / b_adapt=1 / b_bias=0 / direct=3 / weightb=1 / open_gop=0 / weightp=1 / keyint=250 / keyint_min=23 / scenecut=40 / intra_refresh=0 / rc_lookahead=40 / rc=2pass / mbtree=1 / bitrate=10391 / ratetol=1.0 / qcomp=0.60 / qpmin=0 / qpmax=69 / qpstep=4 / cplxblur=20.0 / qblur=0.5 / ip_ratio=1.40 / aq=1:1.00
  27. Language                                 : English
  28. Default                                  : Yes
  29. Forced                                   : No

  30. Audio
  31. ID                                       : 2
  32. Format                                   : DTS
  33. Format/Info                              : Digital Theater Systems
  34. Codec ID                                 : A_DTS
  35. Duration                                 : 1 h 58 min
  36. Bit rate mode                            : Constant
  37. Bit rate                                 : 1 509 kb/s
  38. Channel(s)                               : 6 channels
  39. Channel layout                           : C L R Ls Rs LFE
  40. Sampling rate                            : 48.0 kHz
  41. Frame rate                               : 93.750 FPS (512 SPF)
  42. Bit depth                                : 24 bits
  43. Compression mode                         : Lossy
  44. Stream size                              : 1.25 GiB (13%)
  45. Language                                 : English
  46. Default                                  : Yes
  47. Forced                                   : No

  48. Menu
  49. 00:00:00.000                             : :Kapitel 01
  50. 00:04:50.499                             : :Kapitel 02
  51. 00:10:51.067                             : :Kapitel 03
  52. 00:17:47.692                             : :Kapitel 04
  53. 00:23:53.015                             : :Kapitel 05
  54. 00:30:00.132                             : :Kapitel 06
  55. 00:33:05.066                             : :Kapitel 07
  56. 00:37:09.310                             : :Kapitel 08
  57. 00:43:42.912                             : :Kapitel 09
  58. 00:50:47.336                             : :Kapitel 10
  59. 00:55:02.716                             : :Kapitel 11
  60. 00:59:48.460                             : :Kapitel 12
  61. 01:06:27.233                             : :Kapitel 13
  62. 01:14:32.093                             : :Kapitel 14
  63. 01:18:26.410                             : :Kapitel 15
  64. 01:23:07.900                             : :Kapitel 16
  65. 01:28:04.654                             : :Kapitel 17
  66. 01:33:10.877                             : :Kapitel 18
  67. 01:37:13.745                             : :Kapitel 19
  68. 01:44:39.190                             : :Kapitel 20
  69. 01:47:47.336                             : :Kapitel 21
复制代码

狮子王/狮子王真人版 The.Lion.King.2019.3D.1080p.BluRay.x264-GUACAMOLE 9.84GB-2.png





本帖隐藏的下载地址需要VIP会员才可阅读,您需要升级才可阅读,点击这里升级VIP
VIP会员免费任意下载本站所有资源!---点击开通
回复

使用道具 举报

懒得打字嘛,点击右侧快捷回复 【右侧内容,后台自定义】
您需要登录后才可以回帖 登录 | 立即注册

本版积分规则

QQ|Archiver|手机版|小黑屋| 中国高清网 |网站地图 

GMT+8, 2019-11-15 10:40 , Processed in 0.251008 second(s), 37 queries .

Powered by HDchina X3.4

Copyright 2017-2019©HDchina.All right reserved

返回顶部 联系我们