查看: 194|回复: 1

[剧情片] 别告诉她/不要告诉她 The.Farewell.2019.720p.BluRay.x264-AAA 4.37GB

[复制链接]

 成长值: 5540

级别:资源管理组

注册时间
2017-10-20
最后登录
2020-6-3
听众
1
收听
0
主题
96338
蓝光币
154957 枚
贡献
20716 点
发表于 2019-11-7 11:41:56 | 显示全部楼层 |阅读模式
别告诉她/不要告诉她 The.Farewell.2019.720p.BluRay.x264-AAA 4.37GB-1.png
0 S4 M  ]/ Y- t7 @3 {' t  J0 E, G% a% |+ b0 O5 ?0 |
译  名 别告诉她 / 不要告诉她 / 别对她说 / 离别婚礼
1 X1 K; g5 e* f; \) Q# g: T片  名 The Farewell
6 t2 @: S' E3 S7 n/ _8 n0 A  k5 }年  代 2019" P, @( m8 |6 T& o$ K' S- [5 v
产  地 美国# A* e& y) F9 I
类  别 剧情 / 笑剧
2 h5 j/ x+ L# k语  言 英语 / 汉语普通话 / 日语
3 G) t  ]2 M1 m$ i/ k- D( j2 }9 n上映日期 2019-01-25(圣丹斯电影节) / 2019-07-12(美国) / 2019-11-22(中国大陆)# W$ b2 N/ J8 |6 M1 N7 r( N- ^
IMDb评分  8.1/10 from 8477 users# t+ s) Z) a( t4 J
IMDb链接  https://www.imdb.com/title/tt8637428: P; a) |0 b- M/ A6 x6 ~5 d
豆瓣评分 8.0/10 from 4000 users
. [8 B0 E5 }- G* Q. }豆瓣链接 https://movie.douban.com/subject/30390144/" f7 N7 z# Z3 }! R2 L: G$ t; f8 q
片  长 98分钟$ l0 c/ `" K& [% ]+ B5 P& L
导  演 王子逸 Lulu Wang
0 G, H9 {8 V3 h! R! W  C. b编  剧 王子逸 Lulu Wang5 d: f( T: l5 h
主  演 奥卡菲娜 Awkwafina
8 _0 i" _4 [! T; t7 L3 d       马志 Tzi Ma
9 s- D) v9 }4 U3 f  s       林晓杰 Diana Lin
8 k$ B- d0 t& `" C( ~+ g       赵淑珍 Shuzhen Zhao( Z0 J1 d! m9 m6 _/ l
       姜永波 Yongbo Jiang
2 M; [0 G5 a( c' W# `, I( B$ D- q       水原碧衣 Aoi Mizuhara( @  J" T3 H  l
       章静 Jing Zhang
' q: z/ l. e: A; L6 S( Y       吉尔·佩雷斯-亚伯拉罕 Gil Perez-Abraham! A1 j% w" F9 C" d3 P8 H. _2 V/ r$ K
       刘敬宇 Jim Liu
9 A  }% A2 i$ D; G% i1 s2 m/ l1 u- Z, I8 r7 y

& L" m6 z" Y) l5 d5 I' A; {/ t- {标  签 家庭 | 美国 | 中国 | 2019 | 剧情 | 笑剧 | 圣丹斯电影节 | 自力
( w6 g3 _, m* `. m* N3 }
0 d+ |, O" Z& b. P; p3 @/ D; E" q简  介  3 r9 v! J' T6 H: g
5 `+ A6 C7 P# a- c
  影片报告一个华人家庭的奶奶被诊断罹癌,但家人挑选隐瞒奶奶,假借一场婚礼的名义让一切家人回家见奶奶最初一面,但在纽约长大的碧莉(奥卡菲娜饰演)以为晓得自己病况是奶奶的人权,是以在华人家庭中上演一场中西文化抵触,一部寻根家庭笑剧。故事改编自华裔女导演王子逸自己的家庭故事,她也因本片被《综艺》杂志评选2019年必关注导演之一。6 p" o3 ^% j4 I( b2 A1 B+ X8 D8 e8 ~

! S  s7 z1 s' @+ `+ R获奖情况  
' |, T& }6 H8 u8 u9 C; f5 a  c9 g3 M0 p# w8 j' W* j% L
  第35届圣丹斯电影节(2019)  @$ s: B% a9 ]% f/ t
  评审团大奖 剧情片(提名) 王子逸
% v, e" G' ]  ]4 R/ S) n2 \9 ?
0 B( n+ r" h0 L  第29届哥谭自力电影奖(2019)
+ D. V+ v9 r4 ?  最好影片(提名)
! A3 G  |5 F5 ~  [& K$ z  最好女演员(提名) 奥卡菲娜
9 |  K; F3 L5 K# t  最好剧本(提名) 王子逸: U# `$ ^2 N, q
  1. Video
    1 |  Z" n" T; J8 a, ]8 m4 P
  2. ID : 1
    " M/ \! V0 }3 Z
  3. Format : AVC) ~, c  p8 m* i/ a: X
  4. Format/Info : Advanced Video Codec
    8 m$ m# X+ R1 S+ M1 @
  5. Format profile : High@L45 W) V/ }4 L; Q
  6. Format settings : CABAC / 5 Ref Frames: u  y# F8 ^. c, W
  7. Format settings, CABAC : Yes% n# \8 u' g% d8 J! T9 ~& y
  8. Format settings, Reference frames : 5 frames& C9 K& x( N% O" l+ J1 |3 Q
  9. Codec ID : V_MPEG4/ISO/AVC
    * Y# C# p+ s7 |1 M: b( n
  10. Duration : 1 h 39 min
    % N! y( B3 J/ z6 W7 e; ^
  11. Bit rate : 4 750 kb/s
    7 p1 i, J' F% M+ @3 {- t2 V
  12. Width : 1 280 pixels- @; l! P: a  d- W6 j/ }+ b
  13. Height : 536 pixels6 j" |3 |. P9 h8 i' j; u3 r! h
  14. Display aspect ratio : 2.40:1
    , x3 N* \( T. P$ b1 O
  15. Frame rate mode : Constant
    ( k( E3 ]; T4 r% n
  16. Frame rate : 23.976 (24000/1001) FPS+ `4 X; k( h* c6 g- b
  17. Color space : YUV+ f, r1 ~; ]* c" n, q* e1 L) I% e
  18. Chroma subsampling : 4:2:0
    ' u: E3 ?/ C# s; q, R$ p
  19. Bit depth : 8 bits
    9 Z4 {, \3 e9 ^0 o
  20. Scan type : Progressive" @9 L* W9 |; h
  21. Bits/(Pixel*Frame) : 0.289
    9 i' h- d5 t  ~" h" i5 f
  22. Stream size : 3.31 GiB (76%)
    5 m8 s$ r( S. {% G; h
  23. Title : The.Farewell.2019.720p.BluRay.x264-AAA
    % G7 |7 r; b% V# ^4 U% M
  24. Writing library : x264 core 157 r2969 d4099dd
    5 O4 R! A2 L9 b8 b& t- [
  25. Encoding settings : cabac=1 / ref=5 / deblock=1:0:0 / analyse=0x3:0x113 / me=umh / subme=8 / psy=1 / psy_rd=1.00:0.00 / mixed_ref=1 / me_range=16 / chroma_me=1 / trellis=2 / 8x8dct=1 / cqm=0 / deadzone=21,11 / fast_pskip=1 / chroma_qp_offset=-2 / threads=17 / lookahead_threads=2 / sliced_threads=0 / nr=0 / decimate=1 / interlaced=0 / bluray_compat=0 / constrained_intra=0 / bframes=3 / b_pyramid=2 / b_adapt=2 / b_bias=0 / direct=3 / weightb=1 / open_gop=0 / weightp=2 / keyint=240 / keyint_min=23 / scenecut=40 / intra_refresh=0 / rc_lookahead=50 / rc=2pass / mbtree=1 / bitrate=4750 / ratetol=1.0 / qcomp=0.60 / qpmin=0 / qpmax=69 / qpstep=4 / cplxblur=20.0 / qblur=0.5 / ip_ratio=1.40 / aq=1:1.00
    + `' g  g$ t8 G* L; z) d" v
  26. Default : Yes
    ! D+ L% b/ y4 u' h9 x
  27. Forced : No4 h  ?, ~- j3 l7 F, ^5 M7 s( [' D
  28. 5 g+ S- f: o+ P7 F
  29. Audio  L- T/ R& N. r
  30. ID : 27 _" F& g9 g) R8 L* M# f
  31. Format : DTS% T2 X) C% o$ D6 [) U( k' y
  32. Format/Info : Digital Theater Systems
    & ]5 t" Z0 B9 v9 Z
  33. Codec ID : A_DTS0 j" v& w- l6 S7 I7 w* U  y2 D
  34. Duration : 1 h 39 min
    3 m1 a; b8 f9 P( e6 q! s
  35. Bit rate mode : Constant! f! o6 k9 t% o* v
  36. Bit rate : 1 509 kb/s5 \1 H5 J2 b! Q) K8 h7 Y% \
  37. Channel(s) : 6 channels
    - s# g: r8 f* o& c' {+ X
  38. Channel layout : C L R Ls Rs LFE
    " A" T! B. `* A( E
  39. Sampling rate : 48.0 kHz5 q3 [; M6 N4 ^' p
  40. Frame rate : 93.750 FPS (512 SPF), }+ i2 M& r2 b4 d* z) }
  41. Bit depth : 24 bits
    / m. G% @; Q3 B) l
  42. Compression mode : Lossy
    # r' J  I- ?9 e* C
  43. Stream size : 1.05 GiB (24%)
    - S( S9 \* C- ^- @4 P
  44. Title : English Digital Theater Systems (DTS)
    * k2 E( z, _! X( k
  45. Language : Chinese
    # I+ V0 \3 _. _5 [
  46. Default : Yes
    " V, G4 T- s" m) c# \3 k
  47. Forced : No
    & J6 i) c" i8 X* g4 L0 \- w6 j( e& _# |
  48. ) d7 Z/ q6 y; M! D" C* o8 n9 b
  49. Text, U8 X* A. U+ k- n/ g: {
  50. ID : 3
    8 }5 Z2 J% O6 ~2 s# p8 g# w
  51. Format : UTF-89 Q6 V2 q5 p- z4 R, }
  52. Codec ID : S_TEXT/UTF8
    " w7 {, Q: z4 T, z5 E7 L; Z4 G
  53. Codec ID/Info : UTF-8 Plain Text
    * B$ e% P4 X5 R$ C% k2 r0 I. ~9 n
  54. Duration : 1 h 31 min( P! q$ t, }. u* j: h: D9 x. ?* I- D
  55. Bit rate : 22 b/s( h6 B% U% O; }0 [. `8 ?8 N
  56. Count of elements : 597
    & ?7 x4 s" }5 T
  57. Stream size : 15.4 KiB (0%)- h; T7 K+ N$ ~+ I
  58. Title : English SDH
    ; H, Y; G4 |0 O% Q
  59. Language : English0 o: k( @3 Q, m+ c- O+ ^* Y$ `- M
  60. Default : No9 _$ D6 K$ e  A* y/ T$ F+ }2 Z
  61. Forced : No
    ; K+ T1 G7 ]! V

  62. 4 L2 q9 j6 H! j* Q9 Q# M6 _
  63. Menu& O4 A9 c* E1 `/ J* C! x8 n1 ~
  64. 00:00:00.000 : :Chapter 01
    / _, ~- M' z9 t- |& v6 k  P# U
  65. 00:06:05.198 : :Chapter 024 M; U/ r  I4 E; J* e9 h  i
  66. 00:12:44.180 : :Chapter 03
    2 O4 C. [0 s5 h- j8 W9 N
  67. 00:19:49.105 : :Chapter 046 K( o) n5 J% i( i& f$ u
  68. 00:25:18.767 : :Chapter 052 S4 i/ X* \% _; s7 f: k/ z
  69. 00:30:53.935 : :Chapter 06
    0 ]) U3 q% f# n' H2 B  Y& p
  70. 00:35:05.228 : :Chapter 075 J1 Q0 C. e( V' I2 F4 Z+ o6 @
  71. 00:44:44.307 : :Chapter 08
    + `: Y. Q+ [4 \5 [" Q: `
  72. 00:51:28.168 : :Chapter 09
    ' T' [5 l+ i2 m
  73. 00:55:31.244 : :Chapter 10) K1 }1 b5 U, B) q) c& n" |
  74. 01:03:09.369 : :Chapter 11& n3 b- d. J6 q' C
  75. 01:07:16.366 : :Chapter 125 z7 u8 u2 J  f# ~6 Q! b) F
  76. 01:15:48.878 : :Chapter 13
    1 g+ U) K7 I/ e+ [0 x
  77. 01:22:03.418 : :Chapter 14
      ^# t  j: l' i6 b- u
  78. 01:27:38.670 : :Chapter 15
    ; b  ?, ~0 q9 z: e" A' b. ]
  79. 01:32:33.923 : :Chapter 16
复制代码

& w8 I+ H) p& s3 k6 L, t: N0 u 别告诉她/不要告诉她 The.Farewell.2019.720p.BluRay.x264-AAA 4.37GB-2.png
; ]. {/ h! L/ ~1 X
6 Q7 d) T0 n2 I/ G: v
4 W9 ]) c3 X- m1 u
/ ~2 U# B5 |: h9 J) ~
. ]9 j( I4 Y$ h) a4 N9 {( G% C8 M# E$ b' G' Y

5 \+ X7 p2 N& d- x2 l
4 ~  m( O  k/ E- Z) a) q
回复

使用道具 举报

级别:功成名就 Lv.9

注册时间
2019-4-24
最后登录
2020-6-3
听众
14
收听
0
主题
0
蓝光币
541 枚
贡献
0 点
发表于 2019-11-8 10:51:45 | 显示全部楼层
楼主发贴辛苦了,谢谢楼主分享!我觉得中国高清电影网是注册对了!
回复

使用道具 举报

懒得打字嘛,点击右侧快捷回复 【右侧内容,后台自定义】
您需要登录后才可以回帖 登录 | 立即注册

本版积分规则

Archiver|手机版|小黑屋| 中国高清网 ( ICP备17007870号-2 ) |网站地图 

GMT+8, 2020-6-4 15:44 , Processed in 0.161917 second(s), 38 queries .

Powered by HDchina X3.4

Copyright 2017-2019©HDchina.All right reserved

返回顶部 联系我们