查看: 62|回复: 1

[剧情片] 别告诉她/不要告诉她 The.Farewell.2019.720p.BluRay.x264-AAA 4.37GB

[复制链接]

 成长值: 3230

级别:资源管理组

注册时间
2017-10-20
最后登录
2019-11-21
听众
1
收听
0
主题
87390
蓝光币
63614 枚
贡献
11749 点
发表于 2019-11-7 11:41:56 | 显示全部楼层 |阅读模式
别告诉她/不要告诉她 The.Farewell.2019.720p.BluRay.x264-AAA 4.37GB-1.png
6 Q# ]3 I/ R  |5 S( s* h. w- d7 {* ]& H" l3 \# C
译  名 别告诉她 / 不要告诉她 / 别对她说 / 离别婚礼2 r/ \5 O# s* l# V! Q; u4 l$ h
片  名 The Farewell' P  c! y3 h; ^: r! \
年  代 2019& h' u; P4 _! a2 s& \
产  地 美国7 u/ f" [0 j9 `# N1 N
类  别 剧情 / 笑剧
1 c0 a2 x$ ?: Q- }$ w+ ^6 m语  言 英语 / 汉语普通话 / 日语9 c( i4 g: _1 b. a, X6 ~
上映日期 2019-01-25(圣丹斯电影节) / 2019-07-12(美国) / 2019-11-22(中国大陆)  z/ w3 m; I; S3 c" n5 M
IMDb评分  8.1/10 from 8477 users" E  b2 d  c5 C' B2 h4 B. v6 |
IMDb链接  https://www.imdb.com/title/tt8637428
* F: y1 C/ q! D豆瓣评分 8.0/10 from 4000 users1 Y9 E) m$ y6 y0 X1 W$ m+ G
豆瓣链接 https://movie.douban.com/subject/30390144/0 ]+ }; Q7 p9 T: V( r* @7 {/ K
片  长 98分钟
6 H; r6 f' A" D/ g; ^9 h导  演 王子逸 Lulu Wang% Y! r1 c& T" |; b9 U- w  N
编  剧 王子逸 Lulu Wang
: J/ l. p7 \- Y" C/ N) u1 A主  演 奥卡菲娜 Awkwafina9 v: U1 w7 p6 V4 X% [# D
       马志 Tzi Ma1 O) {$ N/ o$ e( }
       林晓杰 Diana Lin; ~9 G. u8 r8 E4 h  Z0 N$ q. h
       赵淑珍 Shuzhen Zhao
- Z( t5 k; d; I* g1 Q. g       姜永波 Yongbo Jiang* b0 G" ^9 G7 O) E4 \  v" k, E
       水原碧衣 Aoi Mizuhara
0 y8 ^& B- {; T- O: O, y5 \  y' t       章静 Jing Zhang
! u5 H2 q" c2 {1 Z, M9 w: D, i       吉尔·佩雷斯-亚伯拉罕 Gil Perez-Abraham
2 W5 H* d' P( K+ B7 S0 o, H1 {       刘敬宇 Jim Liu
2 ?/ V" J8 u+ J4 P/ t8 V) I0 B% P" q: ~8 f& g8 b  `

9 S8 G: P) ?8 Z标  签 家庭 | 美国 | 中国 | 2019 | 剧情 | 笑剧 | 圣丹斯电影节 | 自力
# r9 E4 b% I, ?
8 _2 j1 l6 B2 {7 C+ \简  介  - O$ m9 r/ i3 \/ n

- o. X% x8 I# A; J1 O8 t1 s# n  影片报告一个华人家庭的奶奶被诊断罹癌,但家人挑选隐瞒奶奶,假借一场婚礼的名义让一切家人回家见奶奶最初一面,但在纽约长大的碧莉(奥卡菲娜饰演)以为晓得自己病况是奶奶的人权,是以在华人家庭中上演一场中西文化抵触,一部寻根家庭笑剧。故事改编自华裔女导演王子逸自己的家庭故事,她也因本片被《综艺》杂志评选2019年必关注导演之一。
9 J9 h& Z0 h3 C+ b, [% p
% P2 S5 p4 h9 l7 y  y! y4 M获奖情况  
  o, b1 {# E, J+ S% h  Z" K* [
$ d* [$ |5 f# s- W5 m9 N- j7 i6 }  第35届圣丹斯电影节(2019)
/ b2 Q2 v7 v5 S* [  评审团大奖 剧情片(提名) 王子逸8 o6 y/ x) R8 D& D1 o/ ]
3 U, H- Q4 J" [4 N6 s: A- S1 c
  第29届哥谭自力电影奖(2019)
! B3 k- i$ F' W! N2 h  最好影片(提名)
. O5 y$ f. C8 Z1 _; D3 n- }$ l! A  最好女演员(提名) 奥卡菲娜
: j7 V, G0 p, B& T  最好剧本(提名) 王子逸) h! s0 d. w  x8 @) [6 u
  1. Video  d6 ]9 a2 z0 f9 J
  2. ID : 1
    4 I& r1 C0 h+ l1 Z
  3. Format : AVC, Z6 ^4 |4 f* ]. d: Q
  4. Format/Info : Advanced Video Codec
    & G/ B6 _; d4 T% ?* M
  5. Format profile : High@L4' X" X5 Q* ~% q$ G0 x. Z9 k4 B
  6. Format settings : CABAC / 5 Ref Frames4 x$ ^9 |2 w/ x; B, v9 p* @
  7. Format settings, CABAC : Yes3 U4 {! t0 Y6 g  X2 a
  8. Format settings, Reference frames : 5 frames
    7 T8 G1 v/ u  k
  9. Codec ID : V_MPEG4/ISO/AVC
    ' y9 x, M" \( a( y
  10. Duration : 1 h 39 min
    7 f3 w# H3 n( N9 }% ]) g, W: a
  11. Bit rate : 4 750 kb/s$ V8 _% V$ Y* {
  12. Width : 1 280 pixels
    3 C0 w5 d% Y5 e) N
  13. Height : 536 pixels/ n, i7 D8 g3 {" S2 H+ i4 e$ D: F
  14. Display aspect ratio : 2.40:1
    + k2 q( Q5 ~" f
  15. Frame rate mode : Constant
    # a# x, `& r+ x4 g* x9 {3 ?3 k
  16. Frame rate : 23.976 (24000/1001) FPS
    & f( h; q. i# j, Q" n7 S
  17. Color space : YUV
    ) H1 [- }- R( ~- Z8 T
  18. Chroma subsampling : 4:2:0
    ) I. p& O+ v8 o$ J) ?" K& b- n
  19. Bit depth : 8 bits5 L& s$ ?' M9 U+ ~9 o
  20. Scan type : Progressive
    . {; G/ O, e: f8 t7 \. |
  21. Bits/(Pixel*Frame) : 0.2898 Z, b) ~8 y8 a. O+ r/ c
  22. Stream size : 3.31 GiB (76%)
    6 y9 D0 ^4 c) Y" `3 K* Y+ U5 d
  23. Title : The.Farewell.2019.720p.BluRay.x264-AAA
    ) z* M% J; |3 z
  24. Writing library : x264 core 157 r2969 d4099dd
    ; Y% B) u& N3 _
  25. Encoding settings : cabac=1 / ref=5 / deblock=1:0:0 / analyse=0x3:0x113 / me=umh / subme=8 / psy=1 / psy_rd=1.00:0.00 / mixed_ref=1 / me_range=16 / chroma_me=1 / trellis=2 / 8x8dct=1 / cqm=0 / deadzone=21,11 / fast_pskip=1 / chroma_qp_offset=-2 / threads=17 / lookahead_threads=2 / sliced_threads=0 / nr=0 / decimate=1 / interlaced=0 / bluray_compat=0 / constrained_intra=0 / bframes=3 / b_pyramid=2 / b_adapt=2 / b_bias=0 / direct=3 / weightb=1 / open_gop=0 / weightp=2 / keyint=240 / keyint_min=23 / scenecut=40 / intra_refresh=0 / rc_lookahead=50 / rc=2pass / mbtree=1 / bitrate=4750 / ratetol=1.0 / qcomp=0.60 / qpmin=0 / qpmax=69 / qpstep=4 / cplxblur=20.0 / qblur=0.5 / ip_ratio=1.40 / aq=1:1.000 _% B% Q% F6 S+ H: p* u. i( T# ]
  26. Default : Yes
    5 Q$ y: P1 I, C4 b, f" L/ J+ U
  27. Forced : No
    ( t4 B( }5 H* M
  28. 9 D/ l& e- \% G: |8 ^* Z
  29. Audio
    7 q4 r. E, L$ U: A' t8 U4 P6 ~" B( u% r
  30. ID : 2( C6 a* z7 O0 m1 M- D) K. n
  31. Format : DTS9 F- Q' k( }8 x4 l. `0 ?3 g
  32. Format/Info : Digital Theater Systems6 R) I; I6 {* ~  |
  33. Codec ID : A_DTS
    ' p9 t' O) @) m/ X2 `3 x4 x3 y) k
  34. Duration : 1 h 39 min  g2 k5 V9 |2 l$ z# N& ~" p: j
  35. Bit rate mode : Constant
    . W; e: }, n. t$ G
  36. Bit rate : 1 509 kb/s. |2 T" p7 V" b/ \, C
  37. Channel(s) : 6 channels$ U  x1 e; h4 D. `; f( o9 ]
  38. Channel layout : C L R Ls Rs LFE
    ) k7 C  r+ E5 d( C% W- Y
  39. Sampling rate : 48.0 kHz( d) W, O8 z2 _  d
  40. Frame rate : 93.750 FPS (512 SPF)7 A( }1 [3 l; u: y, N+ m
  41. Bit depth : 24 bits
    . n/ z& l5 T% [
  42. Compression mode : Lossy
    0 [+ n/ g# c) P8 `5 T. B6 C: {
  43. Stream size : 1.05 GiB (24%); D' p% b1 X' Y' ], P% l+ m- Y) F
  44. Title : English Digital Theater Systems (DTS)
    ) z7 N; f* y* ^/ i4 b- ]4 r
  45. Language : Chinese
    3 Z$ n4 U( W0 Z, n/ X1 e4 _# e' K* t" j
  46. Default : Yes  O" Y, d8 x: I) f. o7 f  K0 q
  47. Forced : No' t& q2 s  ^, w1 i
  48. ( M" B- M# w0 C% h
  49. Text
    7 A! V+ j. H% p2 p$ e
  50. ID : 34 M4 I4 d1 y: t0 a: ]% i
  51. Format : UTF-8' V2 }, B% M3 ^4 |
  52. Codec ID : S_TEXT/UTF8
    ; A# `7 ]8 x  A  B2 P
  53. Codec ID/Info : UTF-8 Plain Text
    3 t% }0 C  s5 {+ s5 B" r) H
  54. Duration : 1 h 31 min2 l: h* S! ^1 l) t! ~
  55. Bit rate : 22 b/s
    9 l0 m( W* x6 v% Q5 l- Y0 z" f+ |, r
  56. Count of elements : 597
    # d' {* I0 m% v1 U$ T8 c5 G
  57. Stream size : 15.4 KiB (0%)
    3 [% F6 _# K" u% ]  h; o
  58. Title : English SDH7 q# z/ g8 ]- O& U
  59. Language : English
    / X5 l+ N0 ^, S% i; y
  60. Default : No
    0 s+ m& Z8 i( C2 O- l
  61. Forced : No
    4 ?& C9 m& Z" A( }1 r; e
  62. 4 E- ?# p! K( _  p5 j
  63. Menu5 t1 x5 j. f# d6 E- m
  64. 00:00:00.000 : :Chapter 01
    7 N& k, M" ^& D
  65. 00:06:05.198 : :Chapter 02: g: k$ \& e) I- P
  66. 00:12:44.180 : :Chapter 03
    1 B% Z* [: A* y
  67. 00:19:49.105 : :Chapter 048 G8 S) l$ e* e1 K
  68. 00:25:18.767 : :Chapter 05
    * K2 T; l8 c- T) G4 O7 i6 N
  69. 00:30:53.935 : :Chapter 064 M+ d/ G+ x! G
  70. 00:35:05.228 : :Chapter 07
    7 v- F& I. Q5 W3 r+ s, V
  71. 00:44:44.307 : :Chapter 089 k0 p+ L6 N- Z& F; a
  72. 00:51:28.168 : :Chapter 09: |/ ^4 j$ l1 E2 O* v. N, ]
  73. 00:55:31.244 : :Chapter 10
    2 m4 g& w+ o) T, j' Q
  74. 01:03:09.369 : :Chapter 11+ e0 U  C; ^* k" H
  75. 01:07:16.366 : :Chapter 12
    5 o) F/ M7 X. f" |4 ^
  76. 01:15:48.878 : :Chapter 135 i& R3 x) e  Q, {4 I) j0 s
  77. 01:22:03.418 : :Chapter 14
    4 h, u% G+ b1 G: R7 X1 o9 Q1 }% _* q
  78. 01:27:38.670 : :Chapter 15- }# t. |9 p# |/ S) \# p
  79. 01:32:33.923 : :Chapter 16
复制代码

% O4 z  k: ~& v! E. C3 E 别告诉她/不要告诉她 The.Farewell.2019.720p.BluRay.x264-AAA 4.37GB-2.png
0 B! e) `3 `4 a! R& d% r! g0 ~

4 P- H& n- f$ b3 P2 F6 u5 {5 K7 Z3 L& d  X5 l& p; n( Z& N$ u
: k. N) R8 [) W# O0 I, S

& ^% F5 c) s* ?3 G/ j  T+ q8 L' g: V' K6 p1 B  z/ p9 p3 ^
- Z5 Q7 @2 g7 W  {+ m, V+ S8 s
VIP会员免费任意下载本站所有资源!---点击开通
回复

使用道具 举报

级别:一举成名 Lv.7

注册时间
2019-4-24
最后登录
2019-11-21
听众
13
收听
0
主题
0
蓝光币
197 枚
贡献
0 点
发表于 2019-11-8 10:51:45 | 显示全部楼层
楼主发贴辛苦了,谢谢楼主分享!我觉得中国高清电影网是注册对了!
VIP会员免费任意下载本站所有资源!---点击开通
回复

使用道具 举报

懒得打字嘛,点击右侧快捷回复 【右侧内容,后台自定义】
您需要登录后才可以回帖 登录 | 立即注册

本版积分规则

QQ|Archiver|手机版|小黑屋| 中国高清网 |网站地图

GMT+8, 2019-11-22 05:15 , Processed in 0.227183 second(s), 37 queries .

Powered by HDchina X3.4

Copyright 2017-2019©HDchina.All right reserved

返回顶部 联系我们