查看: 59|回复: 2

[剧情片] 深夜秀/夜深时 Late.Night.2019.1080p.BluRay.x264.DTS-FGT 9.24GB

[复制链接]

 成长值: 3160

级别:资源管理组

注册时间
2017-10-20
最后登录
2019-11-11
听众
1
收听
0
主题
86761
蓝光币
61817 枚
贡献
11119 点
发表于 2019-11-7 11:39:43 | 显示全部楼层 |阅读模式
深夜秀/夜深时 Late.Night.2019.1080p.BluRay.x264.DTS-FGT 9.24GB-1.png

译  名 深夜秀 / 夜深时
片  名 Late Night
年  代 2019
产  地 美国
类  别 剧情 / 笑剧
语  言 英语
上映日期 2019-01-25(圣丹斯电影节) / 2019-06-07(美国)
IMDb评分  6.5/10 from 4780 users
IMDb链接  http://www.imdb.com/title/tt6107548
豆瓣评分 7.0/10 from 265 users
豆瓣链接 https://movie.douban.com/subject/27109401/
片  长 102分钟(圣丹斯电影节)
导  演 尼萨·加纳特 Nisha Ganatra
编  剧 敏迪·卡灵 Mindy Kaling
主  演 艾玛·汤普森 Emma Thompson
       敏迪·卡灵 Mindy Kaling
       约翰·利思戈 John Lithgow
       休·丹西 Hugh Dancy
       伊克·巴里霍尔兹 Ike Barinholtz
       梅歌林·艾奇坤沃克 Megalyn Echikunwoke
       艾米·莱安 Amy Ryan
       马克斯·凯塞拉 Max Casella
       保罗·沃尔特·豪泽 Paul Walter Hauser
       瑞德·斯科特 Reid Scott
       丹尼斯·欧哈拉 Denis O'Hare
       费斯·洛根 Faith Logan
       约翰·厄尔利 John Early
       桃乐丝·麦卡锡 Doris McCarthy
       卢克·斯拉特里 Luke Slattery
       格里高利·迈克尔 Gregory Mikell
       Rupak Ginn


标  签 笑剧 | 女性 | EmmaThompson | 美国 | 2019 | 脱口秀 | 电影 | 艾玛·汤普森

简  介  

  艾玛·汤普森、敏迪·卡灵将参演30WEST、FilmNation打造的笑剧[夜深时](Late Night,暂译)。敏迪·卡灵还操刀剧本,尼萨·加纳特(《高玩救未来》)执导。报告一个行将落空工作的深夜脱口秀主持人(汤普森饰),当她招聘女性作家(卡灵饰)时,她的工作和生活似乎有了起色。该片将于四月展开拍摄。
  1. Video
  2. ID                                       : 1
  3. Format                                   : AVC
  4. Format/Info                              : Advanced Video Codec
  5. Format profile                           : High@L4
  6. Format settings                          : CABAC / 4 Ref Frames
  7. Format settings, CABAC                   : Yes
  8. Format settings, Reference frames        : 4 frames
  9. Codec ID                                 : V_MPEG4/ISO/AVC
  10. Duration                                 : 1 h 41 min
  11. Bit rate                                 : 11.5 Mb/s
  12. Width                                    : 1 920 pixels
  13. Height                                   : 1 036 pixels
  14. Display aspect ratio                     : 1.85:1
  15. Frame rate mode                          : Constant
  16. Frame rate                               : 23.976 (24000/1001) FPS
  17. Color space                              : YUV
  18. Chroma subsampling                       : 4:2:0
  19. Bit depth                                : 8 bits
  20. Scan type                                : Progressive
  21. Bits/(Pixel*Frame)                       : 0.241
  22. Stream size                              : 8.17 GiB (88%)
  23. Title                                    : Late.Night.2019.1080p.BluRay.x264.DTS-FGT
  24. Writing library                          : x264 core 148 r2795M aaa9aa8
  25. Encoding settings                        : cabac=1 / ref=4 / deblock=1:-2:-2 / analyse=0x3:0x113 / me=umh / subme=9 / psy=1 / psy_rd=1.00:0.15 / mixed_ref=1 / me_range=16 / chroma_me=1 / trellis=2 / 8x8dct=1 / cqm=0 / deadzone=21,11 / fast_pskip=1 / chroma_qp_offset=-3 / threads=48 / lookahead_threads=3 / sliced_threads=0 / nr=0 / decimate=1 / interlaced=0 / bluray_compat=0 / constrained_intra=0 / bframes=3 / b_pyramid=2 / b_adapt=1 / b_bias=0 / direct=3 / weightb=1 / open_gop=0 / weightp=2 / keyint=250 / keyint_min=25 / scenecut=40 / intra_refresh=0 / rc_lookahead=50 / rc=2pass / mbtree=1 / bitrate=11500 / ratetol=1.0 / qcomp=0.60 / qpmin=0 / qpmax=69 / qpstep=4 / cplxblur=20.0 / qblur=0.5 / vbv_maxrate=31250 / vbv_bufsize=31250 / nal_hrd=none / filler=0 / ip_ratio=1.40 / aq=1:1.00
  26. Language                                 : English
  27. Default                                  : Yes
  28. Forced                                   : No

  29. Audio
  30. ID                                       : 2
  31. Format                                   : DTS
  32. Format/Info                              : Digital Theater Systems
  33. Codec ID                                 : A_DTS
  34. Duration                                 : 1 h 41 min
  35. Bit rate mode                            : Constant
  36. Bit rate                                 : 1 509 kb/s
  37. Channel(s)                               : 6 channels
  38. Channel layout                           : C L R Ls Rs LFE
  39. Sampling rate                            : 48.0 kHz
  40. Frame rate                               : 93.750 FPS (512 SPF)
  41. Bit depth                                : 16 bits
  42. Compression mode                         : Lossy
  43. Stream size                              : 1.07 GiB (12%)
  44. Title                                    : Late.Night.2019.1080p.BluRay.x264.DTS-FGT
  45. Language                                 : English
  46. Default                                  : Yes
  47. Forced                                   : No

  48. Text
  49. ID                                       : 3
  50. Format                                   : UTF-8
  51. Codec ID                                 : S_TEXT/UTF8
  52. Codec ID/Info                            : UTF-8 Plain Text
  53. Duration                                 : 1 h 39 min
  54. Bit rate                                 : 104 b/s
  55. Count of elements                        : 2134
  56. Stream size                              : 76.1 KiB (0%)
  57. Language                                 : English
  58. Default                                  : Yes
  59. Forced                                   : No

  60. Menu
  61. 00:00:00.000                             : en:Chapter 1
  62. 00:09:51.716                             : en:Chapter 2
  63. 00:16:43.961                             : en:Chapter 3
  64. 00:24:45.692                             : en:Chapter 4
  65. 00:33:04.649                             : en:Chapter 5
  66. 00:40:45.568                             : en:Chapter 6
  67. 00:51:39.513                             : en:Chapter 7
  68. 01:02:18.943                             : en:Chapter 8
  69. 01:10:30.226                             : en:Chapter 9
  70. 01:19:15.959                             : en:Chapter 10
  71. 01:26:09.789                             : en:Chapter 11
  72. 01:36:31.202                             : en:Chapter 12
复制代码

深夜秀/夜深时 Late.Night.2019.1080p.BluRay.x264.DTS-FGT 9.24GB-2.png 深夜秀/夜深时 Late.Night.2019.1080p.BluRay.x264.DTS-FGT 9.24GB-3.png 113755u9tqxlxgqkilqsbq.png







VIP会员免费任意下载本站所有资源!---点击开通
回复

使用道具 举报

级别:一举成名 Lv.7

注册时间
2019-4-24
最后登录
2019-11-14
听众
13
收听
0
主题
0
蓝光币
194 枚
贡献
0 点
发表于 2019-11-7 12:32:33 | 显示全部楼层
楼主发贴辛苦了,谢谢楼主分享!我觉得中国高清电影网是注册对了!
VIP会员免费任意下载本站所有资源!---点击开通
回复

使用道具 举报

级别:普通观众 Lv.2

注册时间
2019-5-18
最后登录
2019-11-13
听众
7
收听
0
主题
0
蓝光币
9 枚
贡献
0 点
发表于 2019-11-7 14:11:20 | 显示全部楼层
楼主发贴辛苦了,谢谢楼主分享!我觉得中国高清电影网是注册对了!
VIP会员免费任意下载本站所有资源!---点击开通
回复

使用道具 举报

懒得打字嘛,点击右侧快捷回复 【右侧内容,后台自定义】
您需要登录后才可以回帖 登录 | 立即注册

本版积分规则

QQ|Archiver|手机版|小黑屋| 中国高清网 |网站地图 

GMT+8, 2019-11-15 08:08 , Processed in 0.246096 second(s), 37 queries .

Powered by HDchina X3.4

Copyright 2017-2019©HDchina.All right reserved

返回顶部 联系我们