查看: 47|回复: 0

[动作片] 传话的人/刺客戰 Message.Man.2018.1080p.BluRay.REMUX.AVC.DTS-HD.MA.5.1-FGT 14.50GB

[复制链接]

 成长值: 3140

级别:资源管理组

注册时间
2017-10-20
最后登录
2019-11-11
听众
1
收听
0
主题
86761
蓝光币
61613 枚
贡献
11119 点
发表于 6 天前 | 显示全部楼层 |阅读模式
传话的人/刺客戰 Message.Man.2018.1080p.BluRay.REMUX.AVC.DTS-HD.MA.5.1-FGT 14.50GB-1.png

译  名 传话的人 / 刺客戰(台) / 线人 / 消息人 / 信息人
片  名 Message Man
年  代 2018
产  地 印度尼西亚
类  别 行动 / 惊悚 / 犯罪
语  言 英语
上映日期 2018-02-19(澳大利亚)
IMDb评分  6.8/10 from 2124 users
IMDb链接  https://www.imdb.com/title/tt2787302
豆瓣评分 5.2/10 from 114 users
豆瓣链接 https://movie.douban.com/subject/27184937/
导  演 Corey Pearson
编  剧 Corey Pearson
主  演 Verdi Solaiman
       Paul O'Brien
       Aji Santosa


标  签 行动 | 印尼 | 暴力 | 印度尼西亚 | 犯罪 | 电影 | 2018 | 印尼电影

简  介  

  一個退休的刺客要進行任務中最後的瘋狂殺戮,以便彌補自己過去的殘暴,並讓工作回歸正途。他有什麼目标與計畫?他已無處可逃 即將在這場戰役中周全開戰!!
  1. Video
  2. ID                                       : 1
  3. Format                                   : AVC
  4. Format/Info                              : Advanced Video Codec
  5. Format profile                           : High@L4
  6. Format settings                          : CABAC / 2 Ref Frames
  7. Format settings, CABAC                   : Yes
  8. Format settings, Reference frames        : 2 frames
  9. Codec ID                                 : V_MPEG4/ISO/AVC
  10. Duration                                 : 1 h 30 min
  11. Bit rate mode                            : Variable
  12. Bit rate                                 : 21.5 Mb/s
  13. Maximum bit rate                         : 30.2 Mb/s
  14. Width                                    : 1 920 pixels
  15. Height                                   : 1 080 pixels
  16. Display aspect ratio                     : 16:9
  17. Frame rate mode                          : Constant
  18. Frame rate                               : 24.000 FPS
  19. Color space                              : YUV
  20. Chroma subsampling                       : 4:2:0
  21. Bit depth                                : 8 bits
  22. Scan type                                : Progressive
  23. Bits/(Pixel*Frame)                       : 0.432
  24. Stream size                              : 13.6 GiB (94%)
  25. Title                                    : Message.Man.2018.1080p.BluRay.REMUX.AVC.DTS-HD.MA.5.1-FGT
  26. Language                                 : English
  27. Default                                  : No
  28. Forced                                   : No

  29. Audio
  30. ID                                       : 2
  31. Format                                   : DTS XLL
  32. Format/Info                              : Digital Theater Systems
  33. Commercial name                          : DTS-HD Master Audio
  34. Codec ID                                 : A_DTS
  35. Duration                                 : 1 h 30 min
  36. Bit rate mode                            : Variable
  37. Bit rate                                 : 1 459 kb/s
  38. Channel(s)                               : 6 channels
  39. Channel layout                           : C L R Ls Rs LFE
  40. Sampling rate                            : 48.0 kHz
  41. Frame rate                               : 93.750 FPS (512 SPF)
  42. Bit depth                                : 16 bits
  43. Compression mode                         : Lossless
  44. Stream size                              : 943 MiB (6%)
  45. Title                                    : Message.Man.2018.1080p.BluRay.REMUX.AVC.DTS-HD.MA.5.1-FGT
  46. Language                                 : English
  47. Default                                  : Yes
  48. Forced                                   : No

  49. Text #1
  50. ID                                       : 3
  51. Format                                   : UTF-8
  52. Codec ID                                 : S_TEXT/UTF8
  53. Codec ID/Info                            : UTF-8 Plain Text
  54. Duration                                 : 1 h 22 min
  55. Bit rate                                 : 5 b/s
  56. Count of elements                        : 132
  57. Stream size                              : 3.12 KiB (0%)
  58. Title                                    : FORCED
  59. Language                                 : English
  60. Default                                  : Yes
  61. Forced                                   : Yes

  62. Text #2
  63. ID                                       : 4
  64. Format                                   : UTF-8
  65. Codec ID                                 : S_TEXT/UTF8
  66. Codec ID/Info                            : UTF-8 Plain Text
  67. Duration                                 : 1 h 23 min
  68. Bit rate                                 : 21 b/s
  69. Count of elements                        : 607
  70. Stream size                              : 13.4 KiB (0%)
  71. Language                                 : English
  72. Default                                  : No
  73. Forced                                   : No

  74. Menu
  75. 00:00:00.000                             : en:Chapter 01
  76. 00:03:10.375                             : en:Chapter 02
  77. 00:14:35.458                             : en:Chapter 03
  78. 00:25:13.375                             : en:Chapter 04
  79. 00:36:17.500                             : en:Chapter 05
  80. 00:42:26.250                             : en:Chapter 06
  81. 00:47:28.833                             : en:Chapter 07
  82. 00:53:59.125                             : en:Chapter 08
  83. 00:59:51.708                             : en:Chapter 09
  84. 01:10:17.166                             : en:Chapter 10
  85. 01:17:01.583                             : en:Chapter 11
  86. 01:26:25.583                             : en:Chapter 12
复制代码

传话的人/刺客戰 Message.Man.2018.1080p.BluRay.REMUX.AVC.DTS-HD.MA.5.1-FGT 14.50GB-2.png 传话的人/刺客戰 Message.Man.2018.1080p.BluRay.REMUX.AVC.DTS-HD.MA.5.1-FGT 14.50GB-3.png 传话的人/刺客戰 Message.Man.2018.1080p.BluRay.REMUX.AVC.DTS-HD.MA.5.1-FGT 14.50GB-4.png







VIP会员免费任意下载本站所有资源!---点击开通
回复

使用道具 举报

懒得打字嘛,点击右侧快捷回复 【右侧内容,后台自定义】
您需要登录后才可以回帖 登录 | 立即注册

本版积分规则

QQ|Archiver|手机版|小黑屋| 中国高清网 |网站地图 

GMT+8, 2019-11-13 17:07 , Processed in 0.247889 second(s), 37 queries .

Powered by HDchina X3.4

Copyright 2017-2019©HDchina.All right reserved

返回顶部 联系我们