查看: 87|回复: 3

[剧情片] 海角七號 Cape.No.7.2008.1080p.BluRay.x264-Japhson 8.75GB

[复制链接]

 成长值: 3230

级别:资源管理组

注册时间
2017-10-20
最后登录
2019-11-21
听众
1
收听
0
主题
87390
蓝光币
63614 枚
贡献
11749 点
发表于 2019-11-7 00:46:23 | 显示全部楼层 |阅读模式
f803563742dab.png

译  名 天涯七号 / Cape No. 7
片  名 天涯七號
年  代 2008
产  地 中国台湾
类  别 剧情 / 笑剧 / 恋爱
语  言 汉语普通话 / 闽南语 / 日语 / 英语
上映日期 2008-08-22(中国台湾) / 2009-02-14(中国大陆)
IMDb评分  6.9/10 from 3615 users
IMDb链接  https://www.imdb.com/title/tt1267160
豆瓣评分 7.5/10 from 218595 users
豆瓣链接 https://movie.douban.com/subject/3158990/
片  长 Taiwan: 129 分钟
导  演 魏德圣 Te-Sheng Wei
编  剧 魏德圣 Te-Sheng Wei
主  演 范逸臣 Van Fan
       田中千绘 Chie Tanaka
       中孝介 Kosuke Atari
       林宗仁 Johnny Chung-Jen Lin
       马念先 Nien-Hsien Ma
       民雄 Min-Hsiung
       杨荞安 Joanne Yang
       林晓培 Shino Lin
       马如龙 Ju-Lung Ma
       梁文音 Wen-Yin Liang
       应蔚民 Wei-min Ying
       张心妍 Hsin-Yan Chang
       李佩甄 Pei-Chen Lee
       沛小岚 Hsiao-Lan Pei
       丹耐夫正若 Bjanav Zenror
       郭逸轩 Yi-Hsuan Kuo
       李浤嘉 Hung-Chia Li
       黄西田 Sai-Tin Wong
       张魁 Kuei Chang
       赵舜 Shun Zhao
       郑志伟 Chih-Wei Cheng
       魏隽展 Chuan-Chan Wei
       杨淳翔 Dun-Siang Yang
       杨淳言 Dun-Yan Yang
       杨淳至 Dun-Jhih Yang
       吴朋奉 Pong Fong Wu
       祝愿 Chu-Fu
       张琼雯 Chiung-Wen Chang
       陈慕义 Akio Chen
       常陆师父 Chang-Liu
       姚思微 Ssu-Wei Yao
       黄兴全 Hsing-Chuan Huang
       卢怡榕 Jung Lu
       连馨 Hsin Lien
       刘雨柔 Yu-Jou Liu
       林宜均 I-Chun Lin
       杨欣佩 Hsin-Pru Yang
       王婷仪 Ting-I Wang
       谭淑婷 Shu-Ting Tan
       陈妍汝 Yen-Ju Chen
       叶雅馨 Ya-Hsin Yen
       朱丁顺 Ting-Shun Chu
       林聪辉 Tsuang-Hui Lin
       曾吾吉 Wu-Chi Tseng
       林宏道 Hung-Tao Lin
       陈源平 Yuen-Ping Chen
       许胜雄 Sheng-Hsiung Hsu
       詹佑颋 You-Ting Chan
       王荣良 Juang-Liang Wang
       陈顗亘 I-Hsuan Chen
       魏庭芳 Ting-Fang Wei
       李瑞珠 Jui-Chu Li
       许仁豪 Kenny Shiu
       姚怡安 I-An Yao
       何季珊 Chi-Shan Ho
       林明远 Ming-Yuen Lin
       曾柏允 Po-Yun Tseng
       陈致臻 Misaki M.J. Chen
       吴秋莲 Chiu-Lian Wu
       何冠谊 Kuan-I Ho
       高坤成 Jason Kao
       北村丰晴 Toyo Kitamura
       关根直树 Naoki Sekine
       高嶋妙子 Taeko Nagashima
       吴绣敏 Hsiu-Min Wu


标  签 恋爱 | 台湾电影 | 台湾 | 天涯七号 | 青春 | 范逸臣 | 中孝介 | 2008

简  介  

  依傍大海的美丽小镇恒春上,音乐胡想在台北蒙受冲击的年轻人阿嘉(范逸臣)冷眼旁观着一切。虽在民代主席后父的帮手下成了代班邮差,函件和邮包却被他乱堆在房间,而对一个寄自日本的没法送至的邮包,他也没按老邮差茂伯(林宗仁)的吩咐将之退回,而是擅自拆阅检察:里面除一张泛黄的少女照片,是几封写于60年前的函件。当光阴本在二战中败北,在台日籍教师(中孝介)随日军退却时抛弃了相约私奔的女友,归日途中,他将爱意和悔意化为笔墨,但函件直到归天赋被其女儿代为寄出。
  在台湾留学、工作的日本女孩友子(田中千绘)故意成为模特,却被以为形象过期只能做负责日本超级“疗伤歌手”中孝介(中孝介)在恒春的演失事件的公关。按老例,中孝介表演之前会有乐团暖场,友子原本联络了日本某乐团,但民代对峙用当地乐团,友子无法与包括阿嘉在内的几个年龄、工作、本性都有较大差别确当地音乐爱好者——因意外事务失掉幸运生活的交警(民雄)、暗恋老板娘的小店伙计水蛙(夹子小应)、早熟的小女生大大(麦子)等——成了工作同伴。由于阿嘉之外的几人全无舞台表演经历,姑且组建的乐团时有冲突发生,友子常被气得怒喜洋洋,最有经历的阿嘉气她最甚。
  屡有调剂的乐团成员——茂伯、兜销客家小米酒的马拉桑(马念先)前后取代贝斯手加入乐团,一向不顺的排演,中孝介来台的日子越来越近,对阿嘉完全失望的友子决议放弃在台的工作回日本,但两人已在磨擦中生出豪情。未几友子在阿嘉房间看到那些60年前的函件,完全被美丽的恋爱故事感动,吩咐阿嘉一定要将函件送至当事人手中。双方虽没开口剖明,但恋爱的气力无疑是庞大的,阿嘉由于友子重新具有了追求音乐胡想的勇气。中孝介表演行将起头之时,函件仆人的地址被找到,阿嘉也被友子奉告她已接到日本唱片公司的工作邀约。

获奖情况  

  第45届台北金马影展(2008)
  金马奖 最好剧情片(提名)
  金马奖 最好导演(提名) 魏德圣
  金马奖 最好男配角 马如龙
  金马奖 最好新演员(提名) 林宗仁 / 田中千绘
  金马奖 最好摄影(提名) 秦鼎昌
  金马奖 最好原创配乐 骆集益 / 吕圣斐
  金马奖 最好原创歌曲 范逸臣
  金马奖 最好音效(提名) 杜笃之
  金马奖 年度台湾精采电影
  观众票选最好影片

  第28届香港电影金像奖(2009)
  最好亚洲电影(提名)

  第9届华语电影传媒大奖(2009)
  百祖传媒年度致敬电影(提名)
  1. Video
  2. ID                                       : 1
  3. Format                                   : AVC
  4. Format/Info                              : Advanced Video Codec
  5. Format profile                           : High@L4
  6. Format settings                          : CABAC / 5 Ref Frames
  7. Format settings, CABAC                   : Yes
  8. Format settings, Reference frames        : 5 frames
  9. Codec ID                                 : V_MPEG4/ISO/AVC
  10. Duration                                 : 2 h 9 min
  11. Bit rate                                 : 8 136 kb/s
  12. Width                                    : 1 920 pixels
  13. Height                                   : 816 pixels
  14. Display aspect ratio                     : 2.35:1
  15. Frame rate mode                          : Constant
  16. Frame rate                               : 23.976 FPS
  17. Color space                              : YUV
  18. Chroma subsampling                       : 4:2:0
  19. Bit depth                                : 8 bits
  20. Scan type                                : Progressive
  21. Bits/(Pixel*Frame)                       : 0.217
  22. Stream size                              : 7.20 GiB (82%)
  23. Writing library                          : x264 core 65 r1055M 2b8d6a6
  24. Encoding settings                        : cabac=1 / ref=5 / deblock=1:-1:-1 / analyse=0x3:0x113 / me=umh / subme=7 / psy_rd=1.0:0.0 / mixed_ref=1 / me_range=16 / chroma_me=1 / trellis=2 / 8x8dct=1 / cqm=0 / deadzone=21,11 / chroma_qp_offset=-2 / threads=6 / nr=0 / decimate=1 / mbaff=0 / bframes=3 / b_pyramid=0 / b_adapt=2 / b_bias=0 / direct=3 / wpredb=1 / keyint=250 / keyint_min=25 / scenecut=40(pre) / rc=2pass / bitrate=8136 / ratetol=1.0 / qcomp=0.60 / qpmin=10 / qpmax=51 / qpstep=4 / cplxblur=20.0 / qblur=0.5 / vbv_maxrate=50000 / vbv_bufsize=50000 / ip_ratio=1.40 / pb_ratio=1.30 / aq=1:1.00
  25. Language                                 : Chinese
  26. Default                                  : Yes
  27. Forced                                   : No

  28. Audio
  29. ID                                       : 2
  30. Format                                   : DTS
  31. Format/Info                              : Digital Theater Systems
  32. Codec ID                                 : A_DTS
  33. Duration                                 : 2 h 9 min
  34. Bit rate mode                            : Constant
  35. Bit rate                                 : 1 510 kb/s
  36. Channel(s)                               : 6 channels
  37. Channel layout                           : C L R Ls Rs LFE
  38. Sampling rate                            : 48.0 kHz
  39. Frame rate                               : 93.750 FPS (512 SPF)
  40. Bit depth                                : 24 bits
  41. Compression mode                         : Lossy
  42. Stream size                              : 1.37 GiB (16%)
  43. Language                                 : Chinese
  44. Default                                  : Yes
  45. Forced                                   : No

  46. Text
  47. ID                                       : 3
  48. Format                                   : UTF-8
  49. Codec ID                                 : S_TEXT/UTF8
  50. Codec ID/Info                            : UTF-8 Plain Text
  51. Language                                 : English
  52. Default                                  : Yes
  53. Forced                                   : No
复制代码

天涯七號 Cape.No.7.2008.1080p.BluRay.x264-Japhson 8.75GB-2.png 天涯七號 Cape.No.7.2008.1080p.BluRay.x264-Japhson 8.75GB-3.png 天涯七號 Cape.No.7.2008.1080p.BluRay.x264-Japhson 8.75GB-4.png







VIP会员免费任意下载本站所有资源!---点击开通
回复

使用道具 举报

级别:专业龙套 Lv.4

注册时间
2019-5-13
最后登录
2019-11-21
听众
13
收听
0
主题
0
蓝光币
471 枚
贡献
0 点
发表于 2019-11-7 10:33:43 | 显示全部楼层
老電影,非常值得收藏,感謝分享!
VIP会员免费任意下载本站所有资源!---点击开通
回复

使用道具 举报

级别:一举成名 Lv.7

注册时间
2019-4-24
最后登录
2019-11-21
听众
13
收听
0
主题
0
蓝光币
197 枚
贡献
0 点
发表于 2019-11-8 13:46:47 | 显示全部楼层
楼主发贴辛苦了,谢谢楼主分享!我觉得中国高清电影网是注册对了!
VIP会员免费任意下载本站所有资源!---点击开通
回复

使用道具 举报

级别:初级观众 Lv.1

注册时间
2019-11-9
最后登录
2019-11-21
听众
0
收听
0
主题
0
蓝光币
14 枚
贡献
0 点
发表于 2019-11-9 19:24:32 | 显示全部楼层
楼主发贴辛苦了,谢谢楼主分享!我觉得中国高清电影网是注册对了!
VIP会员免费任意下载本站所有资源!---点击开通
回复

使用道具 举报

懒得打字嘛,点击右侧快捷回复 【右侧内容,后台自定义】
您需要登录后才可以回帖 登录 | 立即注册

本版积分规则

QQ|Archiver|手机版|小黑屋| 中国高清网 |网站地图

GMT+8, 2019-11-22 02:20 , Processed in 0.276544 second(s), 37 queries .

Powered by HDchina X3.4

Copyright 2017-2019©HDchina.All right reserved

返回顶部 联系我们