查看: 44|回复: 1

[纪录片] 大北方 IMAX.Great.North.2001.1080p.BluRay.x264-CLASSiC 3.28GB

[复制链接]

 成长值: 3210

级别:资源管理组

注册时间
2017-10-20
最后登录
2019-11-20
听众
1
收听
0
主题
87221
蓝光币
63030 枚
贡献
11580 点
发表于 2019-11-7 00:44:40 | 显示全部楼层 |阅读模式
大北方 IMAX.Great.North.2001.1080p.BluRay.x264-CLASSiC 3.28GB-1.png

译  名 大北方
片  名 Great North
年  代 2001
产  地 加拿大
类  别 记载片
语  言 英语
上映日期 2001-05-11
IMDb评分  6.6/10 from 95 users
IMDb链接  https://www.imdb.com/title/tt0285154
豆瓣评分 7.8/10 from 150 users
豆瓣链接 https://movie.douban.com/subject/2074159/
导  演 Martin J. Dignard / William Reeve
编  剧 Georges-Hébert Germain / David Homel
主  演 Adamie Quasiak Inukpuk
       Shelagh Rogers


标  签 记载片 | 加拿大 | 自然 | IMAX | Documentary | 记载-社会 | 自然电影 | 2001

简  介  

  一个庞大又发亮的冰山逐步显现了;一条河流蜿蜓的流冰冻的山谷,四周的陡直的群山;一道彩虹由山边划过。Inuit说:“我叫Adamie Inukpuk”,“我已经在这里住5000年了。”他是传闻中深植我们心中的Nanook的孙子。Adamie会指导你,明白有关这片地盘的传统和文化。让你就像迁移的驯鹿,透过宽广的视野欣赏丰富的景色,并如设身处地般的履历坎坷不服的地盘,与这块地盘上的原居民,分享北极大地的自然美景。
  1. Video
  2. ID                                       : 1
  3. Format                                   : AVC
  4. Format/Info                              : Advanced Video Codec
  5. Format profile                           : High@L4
  6. Format settings                          : CABAC / 4 Ref Frames
  7. Format settings, CABAC                   : Yes
  8. Format settings, Reference frames        : 4 frames
  9. Codec ID                                 : V_MPEG4/ISO/AVC
  10. Duration                                 : 41 min 30 s
  11. Bit rate                                 : 10.9 Mb/s
  12. Width                                    : 1 920 pixels
  13. Height                                   : 1 080 pixels
  14. Display aspect ratio                     : 16:9
  15. Frame rate mode                          : Constant
  16. Frame rate                               : 24.000 FPS
  17. Color space                              : YUV
  18. Chroma subsampling                       : 4:2:0
  19. Bit depth                                : 8 bits
  20. Scan type                                : Progressive
  21. Bits/(Pixel*Frame)                       : 0.218
  22. Stream size                              : 3.08 GiB (94%)
  23. Writing library                          : x264 core 76 r1271 496d79d
  24. Encoding settings                        : cabac=1 / ref=4 / deblock=1:0:0 / analyse=0x3:0x133 / me=umh / subme=7 / psy=1 / psy_rd=1.0:0.0 / mixed_ref=1 / me_range=16 / chroma_me=1 / trellis=1 / 8x8dct=1 / cqm=0 / deadzone=21,11 / chroma_qp_offset=-2 / threads=6 / nr=0 / decimate=1 / mbaff=0 / bframes=3 / b_pyramid=0 / b_adapt=1 / b_bias=0 / direct=1 / wpredb=1 / keyint=250 / keyint_min=25 / scenecut=40 / rc_lookahead=40 / rc=2pass / mbtree=1 / bitrate=10867 / ratetol=1.0 / qcomp=0.60 / qpmin=10 / qpmax=51 / qpstep=4 / cplxblur=20.0 / qblur=0.5 / ip_ratio=1.40 / aq=1:1.00
  25. Language                                 : English
  26. Default                                  : No
  27. Forced                                   : No

  28. Audio
  29. ID                                       : 2
  30. Format                                   : AC-3
  31. Format/Info                              : Audio Coding 3
  32. Commercial name                          : Dolby Digital
  33. Codec ID                                 : A_AC3
  34. Duration                                 : 41 min 30 s
  35. Bit rate mode                            : Constant
  36. Bit rate                                 : 448 kb/s
  37. Channel(s)                               : 6 channels
  38. Channel layout                           : L R C LFE Ls Rs
  39. Sampling rate                            : 48.0 kHz
  40. Frame rate                               : 31.250 FPS (1536 SPF)
  41. Bit depth                                : 16 bits
  42. Compression mode                         : Lossy
  43. Stream size                              : 133 MiB (4%)
  44. Language                                 : English
  45. Service kind                             : Complete Main
  46. Default                                  : Yes
  47. Forced                                   : No

  48. Text #1
  49. ID                                       : 3
  50. Format                                   : UTF-8
  51. Codec ID                                 : S_TEXT/UTF8
  52. Codec ID/Info                            : UTF-8 Plain Text
  53. Language                                 : English
  54. Default                                  : Yes
  55. Forced                                   : No

  56. Text #2
  57. ID                                       : 4
  58. Format                                   : UTF-8
  59. Codec ID                                 : S_TEXT/UTF8
  60. Codec ID/Info                            : UTF-8 Plain Text
  61. Language                                 : Swedish
  62. Default                                  : No
  63. Forced                                   : No

  64. Text #3
  65. ID                                       : 5
  66. Format                                   : UTF-8
  67. Codec ID                                 : S_TEXT/UTF8
  68. Codec ID/Info                            : UTF-8 Plain Text
  69. Language                                 : Dutch
  70. Default                                  : No
  71. Forced                                   : No
复制代码

大北方 IMAX.Great.North.2001.1080p.BluRay.x264-CLASSiC 3.28GB-2.png 大北方 IMAX.Great.North.2001.1080p.BluRay.x264-CLASSiC 3.28GB-3.png 大北方 IMAX.Great.North.2001.1080p.BluRay.x264-CLASSiC 3.28GB-4.png







VIP会员免费任意下载本站所有资源!---点击开通
回复

使用道具 举报

级别:一举成名 Lv.7

注册时间
2019-4-24
最后登录
2019-11-19
听众
13
收听
0
主题
0
蓝光币
197 枚
贡献
0 点
发表于 2019-11-8 13:49:39 | 显示全部楼层
楼主发贴辛苦了,谢谢楼主分享!我觉得中国高清电影网是注册对了!
VIP会员免费任意下载本站所有资源!---点击开通
回复

使用道具 举报

懒得打字嘛,点击右侧快捷回复 【右侧内容,后台自定义】
您需要登录后才可以回帖 登录 | 立即注册

本版积分规则

QQ|Archiver|手机版|小黑屋| 中国高清网 |网站地图

GMT+8, 2019-11-20 10:14 , Processed in 0.246226 second(s), 37 queries .

Powered by HDchina X3.4

Copyright 2017-2019©HDchina.All right reserved

返回顶部 联系我们