查看: 29|回复: 2

[动画片] 格林奇是如何偷走圣诞节的/格林奇偷走了圣诞节 Dr.Seuss.How.The.Grinch.Stole.Christmas.1966.1080p.BluRay.x264-CiNEFiLE 1.46GB

[复制链接]

 成长值: 3160

级别:资源管理组

注册时间
2017-10-20
最后登录
2019-11-11
听众
1
收听
0
主题
86761
蓝光币
61813 枚
贡献
11119 点
发表于 2019-11-7 00:43:42 | 显示全部楼层 |阅读模式
格林奇是若何偷走圣诞节的/格林奇偷走了圣诞节 Dr.Seuss.How.The.Grinch.Stole.Christmas.1966.1080p.BluRay.x264-CiNEFiLE 1.46GB-1.png

译  名 格林奇是若何偷走圣诞节的 / 格林奇偷走了圣诞节
片  名 How the Grinch Stole Christmas
年  代 1966
产  地 美国
类  别 笑剧 / 动画 / 短片 / 歌舞 / 家庭 / 奇异
语  言 英语
上映日期 1966-12-18
IMDb评分  8.3/10 from 41450 users
IMDb链接  https://www.imdb.com/title/tt0060345
豆瓣评分 7.8/10 from 303 users
豆瓣链接 https://movie.douban.com/subject/1938108/
片  长 26分钟
导  演 Chuck Jones / Ben Washam
编  剧 苏斯博士 Dr. Seuss / Irv Spector
主  演 波利斯·卡洛夫 Boris Karloff


标  签 动画 | 美国 | 短片 | 圣诞 | 动画短片 | 动画片 | Grinch | Dr.Seuss

简  介  

  A grumpy hermit hatches a plan to steal Christmas from the Whos of Whoville
  1. Video
  2. ID                                       : 1
  3. Format                                   : AVC
  4. Format/Info                              : Advanced Video Codec
  5. Format profile                           : High@L4
  6. Format settings                          : CABAC / 5 Ref Frames
  7. Format settings, CABAC                   : Yes
  8. Format settings, Reference frames        : 5 frames
  9. Codec ID                                 : V_MPEG4/ISO/AVC
  10. Duration                                 : 25 min 45 s
  11. Bit rate                                 : 7 909 kb/s
  12. Width                                    : 1 488 pixels
  13. Height                                   : 1 080 pixels
  14. Display aspect ratio                     : 1.378
  15. Frame rate mode                          : Constant
  16. Frame rate                               : 23.976 (24000/1001) FPS
  17. Color space                              : YUV
  18. Chroma subsampling                       : 4:2:0
  19. Bit depth                                : 8 bits
  20. Scan type                                : Progressive
  21. Bits/(Pixel*Frame)                       : 0.205
  22. Stream size                              : 1.39 GiB (96%)
  23. Writing library                          : x264 core 76 r1271 496d79d
  24. Encoding settings                        : cabac=1 / ref=5 / deblock=1:0:0 / analyse=0x3:0x113 / me=umh / subme=7 / psy=1 / psy_rd=1.0:0.0 / mixed_ref=1 / me_range=16 / chroma_me=1 / trellis=1 / 8x8dct=1 / cqm=0 / deadzone=21,11 / chroma_qp_offset=-2 / threads=12 / nr=0 / decimate=1 / mbaff=0 / bframes=3 / b_pyramid=0 / b_adapt=1 / b_bias=0 / direct=1 / wpredb=1 / keyint=250 / keyint_min=25 / scenecut=40 / rc_lookahead=40 / rc=2pass / mbtree=1 / bitrate=7909 / ratetol=1.0 / qcomp=0.60 / qpmin=10 / qpmax=51 / qpstep=4 / cplxblur=20.0 / qblur=0.5 / ip_ratio=1.40 / aq=1:1.00
  25. Language                                 : English
  26. Default                                  : No
  27. Forced                                   : No

  28. Audio
  29. ID                                       : 2
  30. Format                                   : AC-3
  31. Format/Info                              : Audio Coding 3
  32. Commercial name                          : Dolby Digital
  33. Codec ID                                 : A_AC3
  34. Duration                                 : 25 min 45 s
  35. Bit rate mode                            : Constant
  36. Bit rate                                 : 192 kb/s
  37. Channel(s)                               : 2 channels
  38. Channel layout                           : L R
  39. Sampling rate                            : 48.0 kHz
  40. Frame rate                               : 31.250 FPS (1536 SPF)
  41. Bit depth                                : 16 bits
  42. Compression mode                         : Lossy
  43. Stream size                              : 35.4 MiB (2%)
  44. Service kind                             : Complete Main
  45. Default                                  : Yes
  46. Forced                                   : No

  47. Text
  48. ID                                       : 3
  49. Format                                   : UTF-8
  50. Codec ID                                 : S_TEXT/UTF8
  51. Codec ID/Info                            : UTF-8 Plain Text
  52. Language                                 : English
  53. Default                                  : No
  54. Forced                                   : No
复制代码

格林奇是若何偷走圣诞节的/格林奇偷走了圣诞节 Dr.Seuss.How.The.Grinch.Stole.Christmas.1966.1080p.BluRay.x264-CiNEFiLE 1.46GB-2.png 格林奇是若何偷走圣诞节的/格林奇偷走了圣诞节 Dr.Seuss.How.The.Grinch.Stole.Christmas.1966.1080p.BluRay.x264-CiNEFiLE 1.46GB-3.png 格林奇是若何偷走圣诞节的/格林奇偷走了圣诞节 Dr.Seuss.How.The.Grinch.Stole.Christmas.1966.1080p.BluRay.x264-CiNEFiLE 1.46GB-4.png







VIP会员免费任意下载本站所有资源!---点击开通
回复

使用道具 举报

级别:普通观众 Lv.2

注册时间
2019-10-5
最后登录
2019-11-13
听众
0
收听
0
主题
0
蓝光币
71 枚
贡献
0 点
发表于 2019-11-7 10:54:46 | 显示全部楼层
感谢楼主分享经典而资源稀缺的动画电影资源 赞
VIP会员免费任意下载本站所有资源!---点击开通
回复

使用道具 举报

级别:一举成名 Lv.7

注册时间
2019-4-24
最后登录
2019-11-14
听众
13
收听
0
主题
0
蓝光币
194 枚
贡献
0 点
发表于 7 天前 | 显示全部楼层
楼主发贴辛苦了,谢谢楼主分享!我觉得中国高清电影网是注册对了!
VIP会员免费任意下载本站所有资源!---点击开通
回复

使用道具 举报

懒得打字嘛,点击右侧快捷回复 【右侧内容,后台自定义】
您需要登录后才可以回帖 登录 | 立即注册

本版积分规则

QQ|Archiver|手机版|小黑屋| 中国高清网 |网站地图 

GMT+8, 2019-11-15 07:48 , Processed in 0.230936 second(s), 37 queries .

Powered by HDchina X3.4

Copyright 2017-2019©HDchina.All right reserved

返回顶部 联系我们