查看: 49|回复: 2

[恐怖片] 恶魔化身/人形恶魔 Embodiment.Of.Evil.2008.1080p.BluRay.x264-TFiN 7.95GB

[复制链接]

 成长值: 3160

级别:资源管理组

注册时间
2017-10-20
最后登录
2019-11-15
听众
1
收听
0
主题
86768
蓝光币
61946 枚
贡献
11126 点
发表于 2019-11-7 00:42:27 | 显示全部楼层 |阅读模式
004124gtqbinp3inis3sjm.png

译  名 恶魔化身 / 人形恶魔 / 人形恶魔 / 恶魔现身
片  名 Encarna??o do Dem?nio
年  代 2008
产  地 巴西
类  别 可骇
语  言 葡萄牙语
上映日期 2008-08-08
IMDb评分  5.9/10 from 1439 users
IMDb链接  https://www.imdb.com/title/tt0923683
豆瓣评分 5.2/10 from 139 users
豆瓣链接 https://movie.douban.com/subject/3149597/
片  长 94 分钟
导  演 José Mojica Marins
编  剧 Dennison Ramalho / 何塞·莫金卡·马林斯 José Mojica Marins
主  演 何塞·莫金卡·马林斯 José Mojica Marins
       米尔黑·考塔兹 Milhem Cortaz
       Rui Rizende
       Jece Valad?o


标  签 可骇 | 巴西 | 惊悚 | 血腥 | 巴西电影 | 电影 | CULT | 暴力

简  介  

  掘墓者兼杀人狂约瑟夫?赞纳塔斯(Raymond Castile 饰)经过四十多年的牢狱生活,终究凭仗巴西法令的帮助重获自在。可是牢狱并未削弱邪恶的气力,他心中仍然笃定着对恶魔撒旦的信心。约瑟夫和其忠厚的随从搬到穷户窟,约瑟夫时辰遭到昔日罪行的纠缠,昔日朋友们的鬼魂让其痛不欲生,但是他仍希望找到一个完善的女子延续自己的生命,为此不惜大开杀戒。
  今非昔比,四十年后社会动乱,官员败北。军警奥斯瓦多(Adriano Stuart 饰)及其兄弟较约瑟夫有过之而无不及,这两拨邪恶人马必定要有交锋的一天……
  1. Video
  2. ID                                       : 1
  3. Format                                   : AVC
  4. Format/Info                              : Advanced Video Codec
  5. Format profile                           : High@L4
  6. Format settings                          : CABAC / 4 Ref Frames
  7. Format settings, CABAC                   : Yes
  8. Format settings, Reference frames        : 4 frames
  9. Codec ID                                 : V_MPEG4/ISO/AVC
  10. Duration                                 : 1 h 33 min
  11. Bit rate                                 : 11.6 Mb/s
  12. Width                                    : 1 920 pixels
  13. Height                                   : 1 080 pixels
  14. Display aspect ratio                     : 16:9
  15. Frame rate mode                          : Constant
  16. Frame rate                               : 23.976 FPS
  17. Color space                              : YUV
  18. Chroma subsampling                       : 4:2:0
  19. Bit depth                                : 8 bits
  20. Scan type                                : Progressive
  21. Bits/(Pixel*Frame)                       : 0.233
  22. Stream size                              : 7.37 GiB (93%)
  23. Writing library                          : x264 core 70 r1206 01a693d
  24. Encoding settings                        : cabac=1 / ref=4 / deblock=1:-1:-1 / analyse=0x3:0x133 / me=umh / subme=9 / psy=1 / psy_rd=1.0:0.0 / mixed_ref=1 / me_range=16 / chroma_me=1 / trellis=2 / 8x8dct=1 / cqm=0 / deadzone=21,11 / chroma_qp_offset=-2 / threads=3 / nr=0 / decimate=1 / mbaff=0 / bframes=5 / b_pyramid=0 / b_adapt=1 / b_bias=0 / direct=1 / wpredb=1 / keyint=250 / keyint_min=25 / scenecut=40 / rc_lookahead=40 / rc=2pass / mbtree=1 / bitrate=11568 / ratetol=1.0 / qcomp=0.60 / qpmin=10 / qpmax=51 / qpstep=4 / cplxblur=20.0 / qblur=0.5 / ip_ratio=1.40 / aq=1:1.00
  25. Language                                 : English
  26. Default                                  : Yes
  27. Forced                                   : No

  28. Audio
  29. ID                                       : 2
  30. Format                                   : AC-3
  31. Format/Info                              : Audio Coding 3
  32. Commercial name                          : Dolby Digital
  33. Codec ID                                 : A_AC3
  34. Duration                                 : 1 h 33 min
  35. Bit rate mode                            : Constant
  36. Bit rate                                 : 640 kb/s
  37. Channel(s)                               : 6 channels
  38. Channel layout                           : L R C LFE Ls Rs
  39. Sampling rate                            : 48.0 kHz
  40. Frame rate                               : 31.250 FPS (1536 SPF)
  41. Bit depth                                : 16 bits
  42. Compression mode                         : Lossy
  43. Stream size                              : 427 MiB (5%)
  44. Title                                    : Portugese DD5.1
  45. Language                                 : Portuguese
  46. Service kind                             : Complete Main
  47. Default                                  : Yes
  48. Forced                                   : No

  49. Text
  50. ID                                       : 3
  51. Format                                   : UTF-8
  52. Codec ID                                 : S_TEXT/UTF8
  53. Codec ID/Info                            : UTF-8 Plain Text
  54. Title                                    : English
  55. Language                                 : English
  56. Default                                  : Yes
  57. Forced                                   : No
复制代码

恶魔化身/人形恶魔 Embodiment.Of.Evil.2008.1080p.BluRay.x264-TFiN 7.95GB-2.png 恶魔化身/人形恶魔 Embodiment.Of.Evil.2008.1080p.BluRay.x264-TFiN 7.95GB-3.png 恶魔化身/人形恶魔 Embodiment.Of.Evil.2008.1080p.BluRay.x264-TFiN 7.95GB-4.png







VIP会员免费任意下载本站所有资源!---点击开通
回复

使用道具 举报

级别:普通观众 Lv.2

注册时间
2019-11-4
最后登录
2019-11-13
听众
0
收听
0
主题
0
蓝光币
10 枚
贡献
0 点
发表于 2019-11-7 12:07:37 | 显示全部楼层
楼主发贴辛苦了,谢谢楼主分享!我觉得中国高清电影网是注册对了!
VIP会员免费任意下载本站所有资源!---点击开通
回复

使用道具 举报

级别:一举成名 Lv.7

注册时间
2019-4-24
最后登录
2019-11-14
听众
13
收听
0
主题
0
蓝光币
194 枚
贡献
0 点
发表于 7 天前 | 显示全部楼层
楼主发贴辛苦了,谢谢楼主分享!我觉得中国高清电影网是注册对了!
VIP会员免费任意下载本站所有资源!---点击开通
回复

使用道具 举报

懒得打字嘛,点击右侧快捷回复 【右侧内容,后台自定义】
您需要登录后才可以回帖 登录 | 立即注册

本版积分规则

QQ|Archiver|手机版|小黑屋| 中国高清网 |网站地图 

GMT+8, 2019-11-15 20:11 , Processed in 0.250137 second(s), 37 queries .

Powered by HDchina X3.4

Copyright 2017-2019©HDchina.All right reserved

返回顶部 联系我们