查看: 38|回复: 1

[剧情片] 暴力人生 Man of Violence Man.Of.Violence.1970.1080p.BluRay.x264-CiNEFiLE 7.94GB

[复制链接]

 成长值: 3140

级别:资源管理组

注册时间
2017-10-20
最后登录
2019-11-11
听众
1
收听
0
主题
86761
蓝光币
61615 枚
贡献
11119 点
发表于 6 天前 | 显示全部楼层 |阅读模式
暴力人生 Man of Violence Man.Of.Violence.1970.1080p.BluRay.x264-CiNEFiLE 7.94GB-1.png

译  名 Moon / The Sex Racketeers
片  名 暴力人生 Man of Violence
年  代 1971
产  地 英国
类  别 剧情 / 行动 / 惊悚
语  言 英语
上映日期 1974-02-15
IMDb评分  5.2/10 from 149 users
IMDb链接  https://www.imdb.com/title/tt0067390
豆瓣评分 0/10 from 0 users
豆瓣链接 https://movie.douban.com/subject/4074590/
片  长 USA: 107 分钟
导  演 Pete Walker
编  剧 Brian Comport / Pete Walker
主  演 Michael Latimer
       Michael Latimer
       Virginia Wetherell


标  签 英国电影 | Flipside | CULT | 英国 | 。 | UK+Ireland

简  介  

  In a world of gangs and villains, one man - Moon - will stop at nothing to get the girl and take the spoils. Pete Walker's affectionate low-budget homage to the gangster thriller is packed with sights and sounds from a Britain about to swing out of the Sixties and into a somewhat less optimistic decade. It offers not only rare glimpses of a world gone by, but also some unexpected twists on generic convention. The cast includes Hammer girls Luan Peters (Lust for a Vampire, Twins of Evil) and Virginia Wetherell (Doctor Jekyll & Sister Hyde, Demons of the Mind).
  1. Video
  2. ID                                       : 1
  3. Format                                   : AVC
  4. Format/Info                              : Advanced Video Codec
  5. Format profile                           : High@L4
  6. Format settings                          : CABAC / 4 Ref Frames
  7. Format settings, CABAC                   : Yes
  8. Format settings, Reference frames        : 4 frames
  9. Codec ID                                 : V_MPEG4/ISO/AVC
  10. Duration                                 : 1 h 48 min
  11. Bit rate                                 : 10.3 Mb/s
  12. Width                                    : 1 440 pixels
  13. Height                                   : 1 080 pixels
  14. Display aspect ratio                     : 4:3
  15. Frame rate mode                          : Constant
  16. Frame rate                               : 23.976 FPS
  17. Color space                              : YUV
  18. Chroma subsampling                       : 4:2:0
  19. Bit depth                                : 8 bits
  20. Scan type                                : Progressive
  21. Bits/(Pixel*Frame)                       : 0.275
  22. Stream size                              : 7.59 GiB (96%)
  23. Writing library                          : x264 core 75 r1259 dd026f2
  24. Encoding settings                        : cabac=1 / ref=4 / deblock=1:0:0 / analyse=0x3:0x133 / me=umh / subme=7 / psy=1 / psy_rd=1.0:0.0 / mixed_ref=1 / me_range=16 / chroma_me=1 / trellis=1 / 8x8dct=1 / cqm=0 / deadzone=21,11 / chroma_qp_offset=-2 / threads=6 / nr=0 / decimate=1 / mbaff=0 / bframes=3 / b_pyramid=0 / b_adapt=1 / b_bias=0 / direct=1 / wpredb=1 / keyint=250 / keyint_min=25 / scenecut=40 / rc_lookahead=40 / rc=2pass / mbtree=1 / bitrate=10260 / ratetol=1.0 / qcomp=0.60 / qpmin=10 / qpmax=51 / qpstep=4 / cplxblur=20.0 / qblur=0.5 / ip_ratio=1.40 / aq=1:1.00
  25. Language                                 : English
  26. Default                                  : No
  27. Forced                                   : No

  28. Audio
  29. ID                                       : 2
  30. Format                                   : AC-3
  31. Format/Info                              : Audio Coding 3
  32. Commercial name                          : Dolby Digital
  33. Codec ID                                 : A_AC3
  34. Duration                                 : 1 h 48 min
  35. Bit rate mode                            : Constant
  36. Bit rate                                 : 256 kb/s
  37. Channel(s)                               : 2 channels
  38. Channel layout                           : L R
  39. Sampling rate                            : 48.0 kHz
  40. Frame rate                               : 31.250 FPS (1536 SPF)
  41. Bit depth                                : 16 bits
  42. Compression mode                         : Lossy
  43. Stream size                              : 198 MiB (2%)
  44. Language                                 : English
  45. Service kind                             : Complete Main
  46. Default                                  : Yes
  47. Forced                                   : No

  48. Text
  49. ID                                       : 3
  50. Format                                   : UTF-8
  51. Codec ID                                 : S_TEXT/UTF8
  52. Codec ID/Info                            : UTF-8 Plain Text
  53. Language                                 : English
  54. Default                                  : No
  55. Forced                                   : No
复制代码

暴力人生 Man of Violence Man.Of.Violence.1970.1080p.BluRay.x264-CiNEFiLE 7.94GB-2.png 暴力人生 Man of Violence Man.Of.Violence.1970.1080p.BluRay.x264-CiNEFiLE 7.94GB-3.png 暴力人生 Man of Violence Man.Of.Violence.1970.1080p.BluRay.x264-CiNEFiLE 7.94GB-4.png







VIP会员免费任意下载本站所有资源!---点击开通
回复

使用道具 举报

级别:一举成名 Lv.7

注册时间
2019-4-24
最后登录
2019-11-13
听众
13
收听
0
主题
0
蓝光币
194 枚
贡献
0 点
发表于 5 天前 | 显示全部楼层
楼主发贴辛苦了,谢谢楼主分享!我觉得中国高清电影网是注册对了!
VIP会员免费任意下载本站所有资源!---点击开通
回复

使用道具 举报

懒得打字嘛,点击右侧快捷回复 【右侧内容,后台自定义】
您需要登录后才可以回帖 登录 | 立即注册

本版积分规则

QQ|Archiver|手机版|小黑屋| 中国高清网 |网站地图 

GMT+8, 2019-11-13 17:52 , Processed in 0.223785 second(s), 37 queries .

Powered by HDchina X3.4

Copyright 2017-2019©HDchina.All right reserved

返回顶部 联系我们