查看: 57|回复: 0

[动作片] 狼牙脩皇后 Queens.of.Langkasuka.2008.1080p.BluRay.x264-BestHD 7.94GB

[复制链接]

 成长值: 3210

级别:资源管理组

注册时间
2017-10-20
最后登录
2019-11-20
听众
1
收听
0
主题
87277
蓝光币
63244 枚
贡献
11636 点
发表于 2019-11-7 00:38:31 | 显示全部楼层 |阅读模式
狼牙脩皇后 Queens.of.Langkasuka.2008.1080p.BluRay.x264-BestHD 7.94GB-1.png

译  名 狼牙脩皇后 / Queens of Langkasuka / 海上的女皇
片  名 ??????????????
年  代 2008
产  地 泰国
类  别 行动 / 奇异 / 冒险
语  言 泰语
上映日期 2008-08-12(泰国)
IMDb评分  5.7/10 from 919 users
IMDb链接  https://www.imdb.com/title/tt1262945
豆瓣评分 6.0/10 from 280 users
豆瓣链接 https://movie.douban.com/subject/3177859/
片  长 114分钟
导  演 朗斯·尼美毕达 Nonzee Nimibutr
编  剧 温?洛华林(Win Lyovarin)
主  演 阿南达·艾华灵汉
       楚鹏?常普伦(Chupong Changprung)
       索拉鹏?查特理(Sorapong Chatree)
       安娜?瑞丝(Anna Ris)
       杰西达邦


标  签 泰国电影 | 泰国 | 魔幻 | 奇异 | 行动 | 兰卡苏卡女王 | 电影 | 2008

简  介  

  400年前,狼牙脩国家由于国王Rayabahadur Sah遭到刺杀而沦陷。皇室成员别无挑选,只能将皇冠授与长女Hijau公主(扎鲁尼?苏萨瓦饰演),让她成为狼牙脩皇后。
  虽然她统治着这块国土,却始终面临着与海盗船主乌鸦(威奈?克莱布饰演)缔盟的叛逆军彭亨府(现马来西亚西部最大的州府)王子多年来的倾覆政权活动。乌鸦率领着自己的船员正在试图寻觅由荷兰人Janis Bree和中国人Lim Kium配合发现缔造的大炮,可是这支荷兰船队却在一次爆炸中连同大炮一路沉入海底。
  Hijau皇后为了保卫并稳固自己的国土和势力范围,决议将自己最小的妹妹Ungu公主(安娜?瑞丝饰演)与Pahung王子(杰西达邦饰演)政治联婚。但是Pahung王子却深爱着皇室的Biru公主(杰克林?阿披他娜农饰演)。
  与此同时,一个名叫Pari的男孩(阿南达?艾华灵汉饰演)在小渔村里诞生了。他的父亲正是被海盗船主乌鸦所杀。为了出亡,Pari于7年后被叔叔Anjar带走。为了报仇雪恨,Pari拜师学艺。在圣人白光(索拉鹏?查特理饰演)的教导下,他学会了控制陆地的魔法,并把握了若何与陆地生物交换相同的方式。
  为了可以从海底捞起大炮,已经也是白光的门生现在成为海盗的乌鸦也在进修这类控制陆地的魔法。
  Hijau皇后为了可以建造属于自己的大炮来保卫国土,也在寻觅着大炮的发现人之一--中国人Lim Kium。她派出自己的两名妹妹去寻觅这人,而身手非凡的水兵批示官Yalang(楚鹏?常普伦饰演)则庇护她们的人身平安。
  为了夺取沉在海底的大炮,Hijau皇后一帮人,叛逆军彭亨府王子一伙、海盗乌鸦一伙,以及Pari都将破釜沉舟。
  1. Video
  2. ID : 1
  3. Format : AVC
  4. Format/Info : Advanced Video Codec
  5. Format profile : High@L4
  6. Format settings : CABAC / 4 Ref Frames
  7. Format settings, CABAC : Yes
  8. Format settings, Reference frames : 4 frames
  9. Codec ID : V_MPEG4/ISO/AVC
  10. Duration : 1 h 54 min
  11. Bit rate : 8 437 kb/s
  12. Width : 1 920 pixels
  13. Height : 1 080 pixels
  14. Display aspect ratio : 16:9
  15. Frame rate mode : Constant
  16. Frame rate : 25.000 FPS
  17. Color space : YUV
  18. Chroma subsampling : 4:2:0
  19. Bit depth : 8 bits
  20. Scan type : Progressive
  21. Bits/(Pixel*Frame) : 0.163
  22. Stream size : 6.58 GiB (83%)
  23. Writing library : x264 core 75 r1259 dd026f2
  24. Encoding settings : cabac=1 / ref=4 / deblock=1:0:0 / analyse=0x3:0x113 / me=umh / subme=7 / psy=1 / psy_rd=1.0:0.0 / mixed_ref=1 / me_range=16 / chroma_me=1 / trellis=1 / 8x8dct=1 / cqm=0 / deadzone=21,11 / chroma_qp_offset=-2 / threads=6 / nr=0 / decimate=1 / mbaff=0 / bframes=3 / b_pyramid=0 / b_adapt=1 / b_bias=0 / direct=1 / wpredb=1 / keyint=250 / keyint_min=25 / scenecut=40 / rc_lookahead=40 / rc=2pass / mbtree=1 / bitrate=8437 / ratetol=1.0 / qcomp=0.60 / qpmin=10 / qpmax=51 / qpstep=4 / cplxblur=20.0 / qblur=0.5 / ip_ratio=1.40 / aq=1:1.00
  25. Language : English
  26. Default : Yes
  27. Forced : No

  28. Audio
  29. ID : 2
  30. Format : DTS
  31. Format/Info : Digital Theater Systems
  32. Codec ID : A_DTS
  33. Duration : 1 h 54 min
  34. Bit rate mode : Constant
  35. Bit rate : 1 509 kb/s
  36. Channel(s) : 6 channels
  37. Channel layout : C L R Ls Rs LFE
  38. Sampling rate : 48.0 kHz
  39. Frame rate : 93.750 FPS (512 SPF)
  40. Bit depth : 24 bits
  41. Compression mode : Lossy
  42. Stream size : 1.21 GiB (15%)
  43. Language : Thai
  44. Default : Yes
  45. Forced : No

  46. Text
  47. ID : 3
  48. Format : UTF-8
  49. Codec ID : S_TEXT/UTF8
  50. Codec ID/Info : UTF-8 Plain Text
  51. Language : English
  52. Default : Yes
  53. Forced : No

  54. Menu
  55. 00:00:00.000 : en:00:00:00.000
  56. 00:08:55.920 : en:00:08:55.920
  57. 00:17:44.000 : en:00:17:44.000
  58. 00:28:03.600 : en:00:28:03.600
  59. 00:37:15.400 : en:00:37:15.400
  60. 00:44:39.000 : en:00:44:39.000
  61. 00:55:38.640 : en:00:55:38.640
  62. 01:03:36.000 : en:01:03:36.000
  63. 01:14:50.200 : en:01:14:50.200
  64. 01:23:49.400 : en:01:23:49.400
  65. 01:34:08.200 : en:01:34:08.200
  66. 01:49:08.480 : en:01:49:08.480
复制代码

狼牙脩皇后 Queens.of.Langkasuka.2008.1080p.BluRay.x264-BestHD 7.94GB-2.png 狼牙脩皇后 Queens.of.Langkasuka.2008.1080p.BluRay.x264-BestHD 7.94GB-3.png 狼牙脩皇后 Queens.of.Langkasuka.2008.1080p.BluRay.x264-BestHD 7.94GB-4.png







VIP会员免费任意下载本站所有资源!---点击开通
回复

使用道具 举报

懒得打字嘛,点击右侧快捷回复 【右侧内容,后台自定义】
您需要登录后才可以回帖 登录 | 立即注册

本版积分规则

QQ|Archiver|手机版|小黑屋| 中国高清网 |网站地图

GMT+8, 2019-11-20 22:51 , Processed in 0.244200 second(s), 37 queries .

Powered by HDchina X3.4

Copyright 2017-2019©HDchina.All right reserved

返回顶部 联系我们