查看: 36|回复: 0

[剧情片] 诈骗 The.Grift.2008.1080p.BluRay.x264-THUGLiNE 6.56GB

[复制链接]

 成长值: 3160

级别:资源管理组

注册时间
2017-10-20
最后登录
2019-11-11
听众
1
收听
0
主题
86761
蓝光币
61851 枚
贡献
11119 点
发表于 2019-11-7 00:37:05 | 显示全部楼层 |阅读模式
欺骗 The.Grift.2008.1080p.BluRay.x264-THUGLiNE 6.56GB-1.png

译  名 欺骗
片  名 The Grift
年  代 2008
产  地 美国
类  别 剧情 / 行动 / 惊悚 / 可骇
语  言 英语
上映日期 2008-12-02
IMDb评分  4.9/10 from 215 users
IMDb链接  https://www.imdb.com/title/tt0489048
豆瓣评分 0/10 from 0 users
豆瓣链接 https://movie.douban.com/subject/3325477/
导  演 Ralph E. Portillo
主  演 克莱尔·克里莫
       约翰·沙维奇
       米沙·克林斯


标  签 我看过的英语电影 | 我看过的可骇电影 | 我看过的电影 | MishaCollins | 美国 | 看电影 | 可骇电影 | 英语的标签

简  介  

  故事布景取自于1940年月,关于一位妻子,被她亲爱的丈夫所误解。虽然处境如此,这位妻子还是没有抛弃她的丈夫,并却还得帮助她的丈夫,避免他踏入狡猾的家庭欺骗圈套。
  1. Video
  2. ID                                       : 1
  3. Format                                   : AVC
  4. Format/Info                              : Advanced Video Codec
  5. Format profile                           : High@L4
  6. Format settings                          : CABAC / 4 Ref Frames
  7. Format settings, CABAC                   : Yes
  8. Format settings, Reference frames        : 4 frames
  9. Codec ID                                 : V_MPEG4/ISO/AVC
  10. Duration                                 : 1 h 49 min
  11. Bit rate                                 : 7 927 kb/s
  12. Width                                    : 1 920 pixels
  13. Height                                   : 1 080 pixels
  14. Display aspect ratio                     : 16:9
  15. Frame rate mode                          : Constant
  16. Frame rate                               : 23.976 FPS
  17. Color space                              : YUV
  18. Chroma subsampling                       : 4:2:0
  19. Bit depth                                : 8 bits
  20. Scan type                                : Progressive
  21. Bits/(Pixel*Frame)                       : 0.159
  22. Stream size                              : 5.94 GiB (91%)
  23. Writing library                          : x264 core 72 r1222 d0ee6f8
  24. Encoding settings                        : cabac=1 / ref=4 / deblock=1:0:0 / analyse=0x3:0x2 / me=umh / subme=9 / psy=1 / psy_rd=1.0:0.0 / mixed_ref=1 / me_range=16 / chroma_me=1 / trellis=1 / 8x8dct=1 / cqm=0 / deadzone=21,11 / chroma_qp_offset=-2 / threads=12 / nr=0 / decimate=1 / mbaff=0 / bframes=3 / b_pyramid=0 / b_adapt=1 / b_bias=0 / direct=3 / wpredb=1 / keyint=250 / keyint_min=25 / scenecut=40 / rc_lookahead=40 / rc=2pass / mbtree=1 / bitrate=7927 / ratetol=1.0 / qcomp=0.60 / qpmin=10 / qpmax=51 / qpstep=4 / cplxblur=20.0 / qblur=0.5 / ip_ratio=1.40 / aq=1:1.00
  25. Default                                  : Yes
  26. Forced                                   : No

  27. Audio
  28. ID                                       : 2
  29. Format                                   : AC-3
  30. Format/Info                              : Audio Coding 3
  31. Commercial name                          : Dolby Digital
  32. Codec ID                                 : A_AC3
  33. Duration                                 : 1 h 49 min
  34. Bit rate mode                            : Constant
  35. Bit rate                                 : 640 kb/s
  36. Channel(s)                               : 6 channels
  37. Channel layout                           : L R C LFE Ls Rs
  38. Sampling rate                            : 48.0 kHz
  39. Frame rate                               : 31.250 FPS (1536 SPF)
  40. Bit depth                                : 16 bits
  41. Compression mode                         : Lossy
  42. Stream size                              : 502 MiB (7%)
  43. Language                                 : English
  44. Service kind                             : Complete Main
  45. Default                                  : Yes
  46. Forced                                   : No
复制代码

欺骗 The.Grift.2008.1080p.BluRay.x264-THUGLiNE 6.56GB-2.png 欺骗 The.Grift.2008.1080p.BluRay.x264-THUGLiNE 6.56GB-3.png 欺骗 The.Grift.2008.1080p.BluRay.x264-THUGLiNE 6.56GB-4.png







VIP会员免费任意下载本站所有资源!---点击开通
回复

使用道具 举报

懒得打字嘛,点击右侧快捷回复 【右侧内容,后台自定义】
您需要登录后才可以回帖 登录 | 立即注册

本版积分规则

QQ|Archiver|手机版|小黑屋| 中国高清网 |网站地图 

GMT+8, 2019-11-15 10:02 , Processed in 0.229285 second(s), 37 queries .

Powered by HDchina X3.4

Copyright 2017-2019©HDchina.All right reserved

返回顶部 联系我们