查看: 33|回复: 1

[剧情片] 雷娜·贝克的故事 The.Lena.Baker.Story.2008.1080p.BluRay.x264-CULTHD 7.94GB

[复制链接]

 成长值: 3210

级别:资源管理组

注册时间
2017-10-20
最后登录
2019-11-20
听众
1
收听
0
主题
87221
蓝光币
63030 枚
贡献
11580 点
发表于 2019-11-7 00:36:11 | 显示全部楼层 |阅读模式
雷娜·贝克的故事 The.Lena.Baker.Story.2008.1080p.BluRay.x264-CULTHD 7.94GB-1.png

译  名 雷娜·贝克的故事
片  名 The Lena Baker Story
年  代 2008
产  地 美国
类  别 剧情 / 历史 / 犯罪
语  言 英语
上映日期 2008-05-20
IMDb评分  5.7/10 from 324 users
IMDb链接  https://www.imdb.com/title/tt1139662
豆瓣评分 0/10 from 0 users
豆瓣链接 https://movie.douban.com/subject/3072170/
片  长 106 分钟
导  演 Ralph Wilcox

标  签 黑人 | 美国电影 | 实在故事 | 人性

简  介  

  本片按照真人真事改编,报告了一位美国黑人妇女挣扎克服生射中她所面临的应战,艰难面临自己的决定,终极克服了她的处境。
  Lena Baker是第一位也是唯逐一位在乔治亚州被判处电椅死刑的妇女,由于她杀戮了一位逼迫她成为性奴的老板。1945年履行死刑,她死后于2005年昭雪。
  1. Video
  2. ID                                       : 2
  3. Format                                   : AVC
  4. Format/Info                              : Advanced Video Codec
  5. Format profile                           : High@L4
  6. Format settings                          : CABAC / 5 Ref Frames
  7. Format settings, CABAC                   : Yes
  8. Format settings, Reference frames        : 5 frames
  9. Codec ID                                 : V_MPEG4/ISO/AVC
  10. Duration                                 : 1 h 42 min
  11. Bit rate                                 : 9 619 kb/s
  12. Width                                    : 1 920 pixels
  13. Height                                   : 800 pixels
  14. Display aspect ratio                     : 2.40:1
  15. Frame rate mode                          : Constant
  16. Frame rate                               : 25.000 FPS
  17. Color space                              : YUV
  18. Chroma subsampling                       : 4:2:0
  19. Bit depth                                : 8 bits
  20. Scan type                                : Progressive
  21. Bits/(Pixel*Frame)                       : 0.250
  22. Stream size                              : 6.71 GiB (84%)
  23. Writing library                          : x264 core 76 r1271 496d79d
  24. Encoding settings                        : cabac=1 / ref=5 / deblock=1:0:0 / analyse=0x3:0x133 / me=umh / subme=7 / psy=1 / psy_rd=1.0:0.0 / mixed_ref=1 / me_range=16 / chroma_me=1 / trellis=1 / 8x8dct=1 / cqm=0 / deadzone=21,11 / chroma_qp_offset=-2 / threads=6 / nr=0 / decimate=1 / mbaff=0 / bframes=3 / b_pyramid=1 / b_adapt=1 / b_bias=0 / direct=1 / wpredb=1 / keyint=250 / keyint_min=25 / scenecut=40 / rc=2pass / mbtree=0 / bitrate=9619 / ratetol=1.0 / qcomp=0.60 / qpmin=10 / qpmax=51 / qpstep=4 / cplxblur=20.0 / qblur=0.5 / ip_ratio=1.40 / pb_ratio=1.30 / aq=1:1.00
  25. Language                                 : English
  26. Default                                  : Yes
  27. Forced                                   : No

  28. Audio
  29. ID                                       : 1
  30. Format                                   : DTS
  31. Format/Info                              : Digital Theater Systems
  32. Codec ID                                 : A_DTS
  33. Duration                                 : 1 h 42 min
  34. Bit rate mode                            : Constant
  35. Bit rate                                 : 1 509 kb/s
  36. Channel(s)                               : 6 channels
  37. Channel layout                           : C L R Ls Rs LFE
  38. Sampling rate                            : 48.0 kHz
  39. Frame rate                               : 93.750 FPS (512 SPF)
  40. Bit depth                                : 24 bits
  41. Compression mode                         : Lossy
  42. Stream size                              : 1.08 GiB (14%)
  43. Language                                 : English
  44. Default                                  : Yes
  45. Forced                                   : No

  46. Text #1
  47. ID                                       : 3
  48. Format                                   : UTF-8
  49. Codec ID                                 : S_TEXT/UTF8
  50. Codec ID/Info                            : UTF-8 Plain Text
  51. Language                                 : Swedish
  52. Default                                  : Yes
  53. Forced                                   : No

  54. Text #2
  55. ID                                       : 4
  56. Format                                   : UTF-8
  57. Codec ID                                 : S_TEXT/UTF8
  58. Codec ID/Info                            : UTF-8 Plain Text
  59. Language                                 : Norwegian
  60. Default                                  : No
  61. Forced                                   : No

  62. Text #3
  63. ID                                       : 5
  64. Format                                   : UTF-8
  65. Codec ID                                 : S_TEXT/UTF8
  66. Codec ID/Info                            : UTF-8 Plain Text
  67. Language                                 : Danish
  68. Default                                  : No
  69. Forced                                   : No

  70. Text #4
  71. ID                                       : 6
  72. Format                                   : UTF-8
  73. Codec ID                                 : S_TEXT/UTF8
  74. Codec ID/Info                            : UTF-8 Plain Text
  75. Language                                 : Finnish
  76. Default                                  : No
  77. Forced                                   : No

  78. Menu
  79. 00:00:00.000                             : :00:00:00.000
  80. 00:05:40.840                             : :00:05:40.840
  81. 00:11:39.320                             : :00:11:39.320
  82. 00:17:36.120                             : :00:17:36.120
  83. 00:23:56.360                             : :00:23:56.360
  84. 00:28:05.000                             : :00:28:05.000
  85. 00:33:56.320                             : :00:33:56.320
  86. 00:39:56.720                             : :00:39:56.720
  87. 00:46:55.680                             : :00:46:55.680
  88. 00:52:56.400                             : :00:52:56.400
  89. 00:59:03.240                             : :00:59:03.240
  90. 01:05:06.160                             : :01:05:06.160
  91. 01:13:36.880                             : :01:13:36.880
  92. 01:20:30.120                             : :01:20:30.120
  93. 01:25:48.080                             : :01:25:48.080
  94. 01:29:00.200                             : :01:29:00.200
  95. 01:31:31.200                             : :01:31:31.200
  96. 01:37:59.800                             : :01:37:59.800
复制代码

雷娜·贝克的故事 The.Lena.Baker.Story.2008.1080p.BluRay.x264-CULTHD 7.94GB-2.png 雷娜·贝克的故事 The.Lena.Baker.Story.2008.1080p.BluRay.x264-CULTHD 7.94GB-3.png 003538tc9ffctrcffcsf9r.png







VIP会员免费任意下载本站所有资源!---点击开通
回复

使用道具 举报

级别:普通观众 Lv.2

注册时间
2019-10-27
最后登录
2019-11-19
听众
0
收听
0
主题
0
蓝光币
36 枚
贡献
0 点
发表于 2019-11-7 23:53:12 | 显示全部楼层
楼主发贴辛苦了,谢谢楼主分享!我觉得中国高清电影网是注册对了!
VIP会员免费任意下载本站所有资源!---点击开通
回复

使用道具 举报

懒得打字嘛,点击右侧快捷回复 【右侧内容,后台自定义】
您需要登录后才可以回帖 登录 | 立即注册

本版积分规则

QQ|Archiver|手机版|小黑屋| 中国高清网 |网站地图

GMT+8, 2019-11-20 10:09 , Processed in 0.224640 second(s), 37 queries .

Powered by HDchina X3.4

Copyright 2017-2019©HDchina.All right reserved

返回顶部 联系我们